Files 42316
» » Flo Rida - Can't Believe It ft Pitbull 2013
Language: English
Size: 50.2 MB
Votes: 531
Downloaded: 67
Category: Video
Format: MP3, FLAC
4.0

File list

  • Flo Rida - Can't Believe It ft. Pit.mp4 (50.2 MB)
  • Flo Rida - Can't Believe It ft. Pit.srt (4.7 KB)

Can't Believe It" is a song by American rapper Flo Rida. The song features a rap verse from Cuban-American rapper Pitbull. The song samples "Infinity" by London-based duo Infinity Ink.

Can't Believe It" is a song by American rapper Flo Rida. The music video for "Can't Believe It" was directed by Geremey and Georgie Legs.

Pitbull - Can't Believe It feat Pitbull, Michael Williams - Can't Believe It, Goodtune Karaoke - Can't Believe It (In the Style of Flo Rida & Pitbull), а также . Flo Rida Pitbull – CAN T BELIEVE I. BassBoosted by DimkOn ). 3:43. Flo Rida feat Pitbull – Can t Believe It bass.

Pitbull - Can't Believe It feat Pitbull, Michael Williams - Can't Believe It, Goodtune Karaoke - Can't Believe It (In the Style of Flo Rida & Pitbull), а также рингтоны на звонок и все новые треки. Pitbull – Can t Believe It feat Flo Rida ZD.

Now playing: Maroon 5 Animals.

Can't Believe It (Made Popular By Flo Rida ft. Pitbull) Flo Rida & Pitbull – Can't believe it. DJ Sandr remix. Прослушать Скачать 03:20. Pitbull). Прослушать Скачать 03:46. Flo Rida - Can't Believe It ft. Pitbull. Can't Believe It ft. Flo Rida & Pitbull – Can't believe it.

I Can't Believe It What you do to me girl Watch how you rock my world I Can't Believe It, cannot believe it at all Rock it rock it, and let's see the world together tonight. I Can't Believe It I Can't Believe It I Can't Believe It What you do to me girl Watch how you rock my world I Can't Believe It, cannot believe it at all Rock it rock it, and let's see the world together tonight.

Pitbull - Can't Believe It feat Pitbull, Michael Williams - Can't Believe It, DJ Felli Fel feat. T-Pain, Sean Paul, Flo Rida, Pitbull - Feel It и другие популярные треки и рингтоны. Pitbull –Can t Believe It (Eddi Royal ft. DJ Dimixe. :01. Pitbull vs Dj DNK –Can t Believe It (Dj Alex K MashUp).


[General]
Format : MPEG-4
Format profile : Base Media
Codec ID : isom
File size : 50.2 MiB
Duration : 3mn 46s
Overall bit rate mode : Variable
Overall bit rate : 1 864 Kbps
Encoded date : UTC 2013-07-29 08:26:56
Tagged date : UTC 2013-07-29 08:26:56
Writing application : Lavf54.63.104
[Video]
ID : 1
Format : AVC
Format/Info : Advanced Video Codec
Format profile : [email protected]
Format settings, CABAC : Yes
Format settings, ReFrames : 1 frame
Codec ID : avc1
Codec ID/Info : Advanced Video Coding
Duration : 3mn 46s
Bit rate : 1 768 Kbps
Width : 852 pixels
Height : 480 pixels
Display aspect ratio : 16:9
Frame rate mode : Constant
Frame rate : 23.976 fps
Color space : YUV
Chroma subsampling : 4:2:0
Bit depth : 8 bits
Scan type : Progressive
Bits/(Pixel*Frame) : 0.180
Stream size : 47.5 MiB (95%)
Writing library : x264 core 129
Encoded date : UTC 2013-07-29 08:26:56
Tagged date : UTC 2013-07-29 08:26:56
[Audio]
ID : 2
Format : AAC
Format/Info : Advanced Audio Codec
Format profile : LC
Codec ID : 40
Duration : 3mn 46s
Duration_FirstFrame : 70ms
Bit rate mode : Variable
Bit rate : 96.0 Kbps
Maximum bit rate : 176 Kbps
Channel(s) : 2 channels
Channel positions : Front: L R
Sampling rate : 44.1 KHz
Compression mode : Lossy
Stream size : 2.58 MiB (5%)
Encoded date : UTC 2013-07-29 08:26:56
Tagged date : UTC 2013-07-29 08:26:56

Related music:
Avicii - Wake Me Up 2013 download Avicii - Wake Me Up 2013
Video
English
43.3 MB
4.1
/images/5/7/avicii-wake-me-up-2013.jpg
Pitbull - I Know You Want Me 1080p Music Video download Pitbull - I Know You Want Me 1080p Music Video
Video
English
96.3 MB
4.3
/images/5/9/pitbull-i-know-you-want-me-1080p-music-video-.jpg
Fifth Harmony - Miss Movin' On 2013 download Fifth Harmony - Miss Movin' On 2013
Video
English
52.0 MB
4.6
/images/5/2/fifth-harmony-miss-movin27-on-2013.jpg
Drake - Hold On, We're Going Home ft Majid Jordan 2013 download Drake - Hold On, We're Going Home ft Majid Jordan 2013
Video
English
47.1 MB
4.6
/images/5/4/drake-hold-on2c-we27re-going-home-ft-majid-jordan-2013.jpg
Enrique Iglesias - Turn the Night Up 2013 download Enrique Iglesias - Turn the Night Up 2013
Video
English
36.8 MB
4.1
/images/5/2/enrique-iglesias-turn-the-night-up-2013.jpg
Britney Spears - Work Bitch 2013 download Britney Spears - Work Bitch 2013
Video
English
42.1 MB
4.1
/images/5/3/britney-spears-work-bitch-2013.jpg
Justin Timberlake - TKO 2013 download Justin Timberlake - TKO 2013
Video
English
41.8 MB
4.3
/images/5/0/justin-timberlake-tko-2013.jpg
Lana Del Rey - Summertime Sadness 2012 download Lana Del Rey - Summertime Sadness 2012
Video
English
37.1 MB
4.8
/images/5/0/lana-del-rey-summertime-sadness-2012.jpg
Zendaya - Replay 2013 download Zendaya - Replay 2013
Video
English
37.0 MB
4.4
/images/5/1/zendaya-replay-2013.jpg