Files 42316
» » Will i am - Scream And Shout 2013 M4A+MP4 x264 Ft. Britney Spears, Hit Boy, Waka Flocka Flame, Lil Wayne & Diddy VX Remix 1080p
Language: English
Size: 65.4 MB
Votes: 532
Downloaded: 40
Category: Video
Format: MP3, FLAC
4.1

File list

  • Will.i.am Ft. VA - Scream And Shout (Remix) (1080p) x264 [VX] [P2PDL].mp4 (59.2 MB)
  • 01 will.i.am - Scream & Shout (Remix) [feat. Britney Spears, Hit Boy, Waka Flocka Flame, Lil Wayne & Diddy].m4a (6.1 MB)
  • Cover.jpg (82.1 KB)
  • Will.i.am Ft. VA - Scream And Shout (Remix) (1080p) x264 [VX] [P2PDL].nfo (10.5 KB)
  • Torrent downloaded from P2PDL.com.txt (0.0 KB)

Lil Wayne, Diddy, Britney Spears, Hit-Boy, Wake Flocka – Scream & Shout (Remix).

Britney Spears & Lil Wayne & Diddy & Waka Flocka – Scream & Shout (Remix) (2013 ) e.

Today on the radio: FM hits. New Music: September 2019. MP3 128Kbps, . 6 Mb MP3 64Kbps, . 8 Mb. Will. Am Feat Lil Wayne, Britney Spears, Waka Flocka Flame, Hit-Boy and Diddy.

Lil Wayne, Britney Spears, Waka Flocka Flame, Hit-Boy & Diddy – Scream &Shout V. OM/BASS.

Scream and shout, and let it all out (yeah, yeah) And scream and shout . Release Date January 25, 2013.

Lil Wayne, Britney Spears, Waka Flocka Flame, Hit-Boy & Diddy Scream & Shout (Remix)(BassBoosted By Danka) 04:20.

Britney Spears, Hit Boy, Waka Flocka Flame, Lil Wayne & Diddy] 2013 M4A+MP4 (1080p) x264 . .General Complete name : Will.

am Britney Spears Hit Boy Waka Flocka Flame Lil Wayne Diddy.


Will.i.am - Scream And Shout (Remix) [Ft. Britney Spears, Hit Boy, Waka Flocka Flame, Lil Wayne & Diddy] 2013 M4A+MP4 (1080p) x264 [VX] [P2PDL]
1080p Full HD MP4 Video
+
128 Kbps/VBR M4A Audio

Quote:

General
Complete name : Will.i.am Ft. VA - Scream And Shout (Remix) (1080p) x264 [VX] [P2PDL].mp4
Format : MPEG-4
Format profile : Base Media / Version 2
Codec ID : mp42
File size : 59.2 MiB
Duration : 5mn 47s
Video
Format : AVC
Format/Info : Advanced Video Codec
Format profile : [email protected]
Bit rate mode : Variable
Bit rate : 1 300 Kbps
Width : 1 920 pixels
Height : 1 080 pixels
Display aspect ratio : 16:9
Frame rate mode : Variable
Frame rate : 23.976 fps
Bit depth : 8 bits
Stream size : 53.8 MiB (91%)
Writing library : x264 core 129
Audio
Format : AAC
Bit rate mode : Variable
Bit rate : 125 Kbps
Channel(s) : 2 channels
Channel positions : Front: L R
Sampling rate : 48.0 KHz
Stream size : 5.16 MiB (9%)
Subtitles : No

Screens:


Quote:


Notes:
* Recommended to use latest version VLC Media Player.
* Install shark007 codecs in case of any kind of problem in playback (For non-VLC Media Player users).
* Alternatively, install Core AVC codecs, the fastest decoder that there is coupled with Community Center Codec Pack and play on Windows Media Player Classic.
Greets to: VYTO, a2zRG, MusiK_KinG, Kuroyukihime, Caveman, Ash968, Neon, TwentyForty, Masta, TorDigger and staff members at ExtraTorrent, TPB, H33T, KAT, , PublicHD, Ahashare, TorrentMafia, Limetorrents, BTScene, P2PDL, and all others
Encoder Notes: Looking For Early Access To Anything You Can Provide DVDScr, R5, DVDRips, BluRay, Direct Audio, Early Music
Releases, Seedboxes, Links, Dedicated Servers anything u can provide, Advance / Promo CDs/DVDs. If You Got anything to
offer contact me at "[email protected]"


Related music:
Saans Jab tak hai jaan 2012 1080p HD Mys download Saans Jab tak hai jaan 2012 1080p HD Mys
DVD
English
82.7 MB
4.5
/images/5/3/saans-jab-tak-hai-jaan-2012-1080p-hd-mys.jpg
Little Mix - Little Me 1080p Music Video download Little Mix - Little Me 1080p Music Video
Video
English
74.7 MB
4.9
/images/5/1/little-mix-little-me-1080p-music-video-.jpg
Britney Spears - Ooh La La 1080p Music Video download Britney Spears - Ooh La La 1080p Music Video
Video
English
119.6 MB
4.7
/images/5/9/britney-spears-ooh-la-la-1080p-music-video-.jpg
INNA - Wow 1080p Music Video download INNA - Wow 1080p Music Video
Video
English
152.3 MB
4.0
/images/noimage.jpg
Britney Spears - Work Bitch 2013 download Britney Spears - Work Bitch 2013
Video
English
42.1 MB
4.1
/images/5/3/britney-spears-work-bitch-2013.jpg
Will I Am Ft Britney Spears - Scream & Shout 720p Music Video download Will I Am Ft Britney Spears - Scream & Shout 720p Music Video
Video
English
79.4 MB
4.1
/images/5/5/will-i-am-ft-britney-spears-scream-26-shout-720p-music-video-.jpg
One Direction - Midnight Memories X264 1080p TonyStark download One Direction - Midnight Memories X264 1080p TonyStark
Video
English
101.3 MB
4.4
/images/5/5/one-direction-midnight-memories-x264-1080p-tonystark.jpg
Taylor Swift - 22 2013 M4A+MP4 x264 VX 1080p download Taylor Swift - 22 2013 M4A+MP4 x264 VX 1080p
Video
English
40.3 MB
4.1
/images/5/5/taylor-swift-22-2013-m4a2bmp4-x264-vx-1080p.jpg