Files 42316
» » Adele - Rolling In The Deep 1080p Music Video
Language: English
Size: 75.7 MB
Votes: 285
Downloaded: 22
Category: Video
Format: MP3, FLAC
4.0

File list

  • Adele - Rolling In The Deep [Music Video] 1080p [Sbyky].mp4 (75.7 MB)

Adele - Rolling in the Deep - 1080p. Carly Rose Sonenclar's "Rolling in the Deep" - THE X FACTOR USA 2012 - Продолжительность: 8:27 The X Factor USA Recommended for you. 8:27.

Adele - Rolling in the Deep - 1080p.

Madonna - Frozen (Official Music Video) - Продолжительность: 5:23 Madonna Recommended for you. 5:23. Toni Braxton - Un-Break My Heart (Official Music Video) - Продолжительность: 4:33 Toni Braxton Recommended for you. 4:33.

Video ID : 1 Format : AVC Format/Info : Advanced Video . Thanks Adele - Rolling In The Deep (AAC). multimediafm, Sep 14, 2016.

Video ID : 1 Format : AVC Format/Info : Advanced Video Codec Format profile : [email protected] Format settings, CABAC : Yes Format settings, ReFrames : 2 frames Codec ID : avc1 Codec ID/Info : Advanced Video Coding Duration : 3mn 53s Bit rate mode : Constant Bit rate : 1. Mbps Width : 1 920 pixels Height : 1 080 pixels Display aspect ratio : 16:9 Frame rate.

Artist: Adele Title: Rolling In The Deep Year: 2010 Source: MasterRip Clean Video Codec: AVC 1080p. We have an extense video vault, and you can have it too, exchange videos with us. Only accept Best Quality sources like ProRes, DV, or High Bitrate Master Sources. Sample: Write to admincvidcollector. com if you want this video. Video Services like PromoOnly, ETV, or videos with TAG or Logo, encoded videos to mkv, etc, not accepted.

Thousands of YouTube videos with English-Chinese subtitles! Now you can learn to understand native speakers, expand your vocabulary, and . You had my heart inside your hand. And you played it to the beat. Baby I have no story to be told

Thousands of YouTube videos with English-Chinese subtitles! Now you can learn to understand native speakers, expand your vocabulary, and improve your pronunciation. Baby I have no story to be told. But I've heard one of you and I'm gonna make your head burn, Think of me in the depths of your despair. The scars of your love, remind you of us. They keep me thinking that we almost had it all.


General
Complete name : Adele - Rolling In The Deep [Music Video] 1080p [Sbyky].mp4
Format : MPEG-4
Format profile : Base Media / Version 2
Codec ID : mp42
File size : 75.7 MiB
Duration : 3mn 53s
Overall bit rate mode : Variable
Overall bit rate : 2 716 Kbps
Encoded date : UTC 2013-04-04 02:15:22
Tagged date : UTC 2013-04-04 02:15:22
Video
ID : 1
Format : AVC
Format/Info : Advanced Video Codec
Format profile : [email protected]
Format settings, CABAC : Yes
Format settings, ReFrames : 1 frame
Codec ID : avc1
Codec ID/Info : Advanced Video Coding
Duration : 3mn 53s
Bit rate : 2 521 Kbps
Maximum bit rate : 8 990 Kbps
Width : 1 920 pixels
Height : 1 080 pixels
Display aspect ratio : 16:9
Frame rate mode : Constant
Frame rate : 25.000 fps
Color space : YUV
Chroma subsampling : 4:2:0
Bit depth : 8 bits
Scan type : Progressive
Bits/(Pixel*Frame) : 0.049
Stream size : 70.3 MiB (93%)
Tagged date : UTC 2013-04-04 02:16:14
Audio
ID : 2
Format : AAC
Format/Info : Advanced Audio Codec
Format profile : LC
Codec ID : 40
Duration : 3mn 53s
Bit rate mode : Variable
Bit rate : 192 Kbps
Maximum bit rate : 202 Kbps
Channel(s) : 2 channels
Channel positions : Front: L R
Sampling rate : 44.1 KHz
Compression mode : Lossy
Stream size : 5.35 MiB (7%)
Title : IsoMedia File Produced by Google, 5-11-2011
Encoded date : UTC 2013-04-04 02:15:59
Tagged date : UTC 2013-04-04 02:16:14
Shared By Sbyky

Related music:
Pitbull Ft Ke$ha - Timber 1080p Music Video download Pitbull Ft Ke$ha - Timber 1080p Music Video
Video
English
85.8 MB
4.4
/images/5/7/pitbull-ft-ke24ha-timber-1080p-music-video-.jpg
PSY - Gentleman 1080p Music Video download PSY - Gentleman 1080p Music Video
Video
English
145.3 MB
4.7
/images/5/2/psy-gentleman-1080p-music-video-.jpg
J Cole - Work Out 1080p Music Video download J Cole - Work Out 1080p Music Video
Video
English
153.3 MB
4.1
/images/5/3/j-cole-work-out-1080p-music-video-.jpg
Little Mix - Little Me 1080p Music Video download Little Mix - Little Me 1080p Music Video
Video
English
74.7 MB
4.9
/images/5/1/little-mix-little-me-1080p-music-video-.jpg
INNA - Wow 1080p Music Video download INNA - Wow 1080p Music Video
Video
English
152.3 MB
4.0
/images/noimage.jpg
Wiz Khalifa Ft Akon - Let It Go 1080p Music Video download Wiz Khalifa Ft Akon - Let It Go 1080p Music Video
Video
English
117.5 MB
4.2
/images/5/6/wiz-khalifa-ft-akon-let-it-go-1080p-music-video-.jpg
Stromae - Papaoutai 1080p Music Video download Stromae - Papaoutai 1080p Music Video
Video
French
83.4 MB
4.5
/images/5/3/stromae-papaoutai-1080p-music-video-.jpg
Passenger - Let Her Go 1080p Music Video download Passenger - Let Her Go 1080p Music Video
Video
English
86.7 MB
4.2
/images/5/0/passenger-let-her-go-1080p-music-video-.jpg