Files 42316
» » Katy Perry Ft Migos - Bon Appétit 1080p Music Video
Language: English
Size: 99.9 MB
Votes: 881
Downloaded: 40
Category: Video
Format: MP3, FLAC
4.7

File list

  • Katy Perry Ft. Migos - Bon Appétit [Music Video] 1080p [Sbyky].MP4 (99.9 MB)

Music video by Katy Perry performing Bon Appétit.

Music video by Katy Perry performing Bon Appétit. LITTLE BIG - I'M OK (official music video) - Продолжительность: 3:37 Little Big Recommended for you. 3:37. Ленинград - Кабриолет - Продолжительность: 5:39 Ленинград Leningrad Recommended for you.

Spirituality & Religion Sports Videos Television Videogame Videos Vlogs Youth Media Computer Science 162, 001 - Spring .

Spirituality & Religion Sports Videos Television Videogame Videos Vlogs Youth Media Computer Science 162, 001 - Spring 2014. audio All Audio latest This Just In Grateful Dead Netlabels Old Time Radio 78 RPMs and Cylinder Recordings. Top. Audio Books & Poetry Community Audio Computers & Technology Music, Arts & Culture News & Public Affairs Non-English Audio Radio Programs. Librivox Free Audiobook. Spirituality & Religion Podcasts. ark:/13960/t7vn1350w. Internet Archive HTML5 Uploader .

Artist: Katy Perry, Migos Title: Bon Appetit Year: 2017 Source: Master Label Video Codec: ProRes 1080p. We have an extense video vault, and you can have it too, exchange videos with us. Only accept Best Quality sources like ProRes, DV, or High Bitrate Master Sources. Sample: Write to admincvidcollector. com if you want this video. Author adminPosted on June 14, 2018October 14, 2019Categories Katy Perry, MigosTags 2017, Katy Perry, Master Label, Migos, ProRes 1080p. Leave a Reply Cancel reply. Video Services like PromoOnly, ETV, or videos with TAG or Logo, encoded videos to mkv, etc, not accepted.

Katy Perry - Cozy Little Christmas (TIDAL-1080p-RAVIXX). music2soul Active Member. Joined: Jun 7, 2016 ianarturis posted Dec 3, 2019 at 11:14 AM.

Katy Perry, Migos - Bon appétit. Download MP3. MP3 320Kbps, . 9 Mb MP3 128Kbps, . 6 Mb MP3 64Kbps, . 3 Mb. Katy Perry.

On Friday (May 12), Katy Perry released a music video for her latest single "Bon Appétit," featuring Migos. The imagery stays in line with Perry's exploration of her sexual liberation - an NSFW sign being displayed in the beginning moments of the video. When she first appears, the singer lies on a bed, sealed in plastic wrapping

Katy Perry is seasoned and served as a sexy chicken cutlet in the NSFW Bon Appétit video. Rap trio Migos and Kogi restaurateur Roy Choimake appearances in the bizarre clip. The video opens with a circle of male chefs brandishing steak-knives cutting Perry out of plastic wrap.

Katy Perry is seasoned and served as a sexy chicken cutlet in the NSFW Bon Appétit video. She’s tossed into flour where they knead and massage her body like dough. In the kitchen, vegetables are tossed on top of Perry before she’s thrown into a stew.

Music is feeling hungry. Bon appetit de Katy Perry é alvo de novas polêmicas. 26 April ·. Katy Perry - Bon Appétit ft. Migos (Official Video). Lizzo Performs "Truth Hurts" and "Good As Hell" 2019 Video Music Award. Nick Cannon Presents: Wild 'N Out. 36,604,579 Views · 26 August.

General
Complete name : Katy Perry Ft. Migos - Bon Appétit [Music Video] 1080p [Sbyky].MP4
Format : MPEG-4
Format profile : Base Media
Codec ID : isom (isom/iso2/avc1/mp41)
File size : 99.9 MiB
Duration : 4 min 17 s
Overall bit rate mode : Variable
Overall bit rate : 3 252 kb/s
Encoded date : UTC 2017-05-12 17:53:15
Tagged date : UTC 2017-05-12 17:53:15
Video
ID : 1
Format : AVC
Format/Info : Advanced Video Codec
Format profile : [email protected]
Format settings, CABAC : Yes
Format settings, ReFrames : 2 frames
Codec ID : avc1
Codec ID/Info : Advanced Video Coding
Duration : 4 min 17 s
Bit rate : 3 123 kb/s
Width : 1 920 pixels
Height : 1 080 pixels
Display aspect ratio : 16:9
Frame rate mode : Variable
Frame rate : 23.976 (24000/1001) FPS
Minimum frame rate : 23.974 FPS
Maximum frame rate : 23.981 FPS
Color space : YUV
Chroma subsampling : 4:2:0
Bit depth : 8 bits
Scan type : Progressive
Bits/(Pixel*Frame) : 0.063
Stream size : 95.9 MiB (96%)
Encoded date : UTC 2017-05-12 17:53:15
Tagged date : UTC 2017-05-12 17:53:15
Color range : Limited
Color primaries : BT.709
Transfer characteristics : BT.709
Matrix coefficients : BT.709
Audio
ID : 2
Format : AAC
Format/Info : Advanced Audio Codec
Format profile : LC
Codec ID : 40
Duration : 4 min 17 s
Bit rate mode : Variable
Bit rate : 126 kb/s
Channel(s) : 2 channels
Channel positions : Front: L R
Sampling rate : 44.1 kHz
Frame rate : 43.066 FPS (1024 spf)
Compression mode : Lossy
Stream size : 3.86 MiB (4%)
Default : Yes
Alternate group : 1
Encoded date : UTC 2017-05-12 17:53:20
Tagged date : UTC 2017-05-12 17:53:20
Shared By Sbyky

Related music:
John Mayer Ft Katy Perry - Who You Love 1080p Music Video download John Mayer Ft Katy Perry - Who You Love 1080p Music Video
Video
English
94.1 MB
4.4
/images/5/9/john-mayer-ft-katy-perry-who-you-love-1080p-music-video-.jpg
Pitbull Ft Ke$ha - Timber 1080p Music Video download Pitbull Ft Ke$ha - Timber 1080p Music Video
Video
English
85.8 MB
4.4
/images/5/7/pitbull-ft-ke24ha-timber-1080p-music-video-.jpg
Sevyn Streeter Ft Kid Ink - nEXt 1080p Music Video download Sevyn Streeter Ft Kid Ink - nEXt 1080p Music Video
Video
English
93.7 MB
4.4
/images/5/4/sevyn-streeter-ft-kid-ink-next-1080p-music-video-.jpg
Katy Perry - Roar 1080p Music Video download Katy Perry - Roar 1080p Music Video
Video
English
188.9 MB
4.0
/images/5/1/katy-perry-roar-1080p-music-video-.jpg
Katy Perry - Birthday 1080p Music Video download Katy Perry - Birthday 1080p Music Video
Video
English
214.8 MB
4.2
/images/5/2/katy-perry-birthday-1080p-music-video-.jpg
Katy Perry Ft Juicy J - Dark Horse 720p Music Video download Katy Perry Ft Juicy J - Dark Horse 720p Music Video
Video
English
55.1 MB
4.8
/images/5/9/katy-perry-ft-juicy-j-dark-horse-720p-music-video-.jpg
YG Ft DJ Mustard - Pop It, Shake It 1080p Music Video download YG Ft DJ Mustard - Pop It, Shake It 1080p Music Video
Video
English
110.0 MB
4.7
/images/5/9/yg-ft-dj-mustard-pop-it2c-shake-it-1080p-music-video-.jpg
Shakira - Empire 1080p Music Video download Shakira - Empire 1080p Music Video
Video
English
94.2 MB
4.1
/images/5/0/shakira-empire-1080p-music-video-.jpg