Files 42316
» » Favourite Hits Of Kollywood Vol-1 - BD Rip - 1080p - x264 - DTS - Esub - Team TMR TMR BDRip
Language: Other
Size: 8.0 GB
Votes: 957
Downloaded: 18
Category: Video
Format: MP3, FLAC
4.0

File list

  • [TMR BDRip] Favourite Hits Of Kollywood Vol-1 - BD Rip - 1080p - x264 - DTS - Esub - Team TMR.mkv (8.0 GB)
  • Read Me~[Team TMR].txt (0.7 KB)
  • Read Me.url (0.1 KB)

Favourite Hits Of Kollywood Vol-1 - BD Rip - 720p - x264 - Ac. p4 video movie h.

Favourite Hits Of Kollywood Vol-1 - BD Rip - 720p - x264 - Ac. p4 video movie hd. 7 years4479 MB00. mkv video movie hd. 7 years2259 MB00. ava addams pun 2s, seinfeld S04E10 2s, Curse of Oak Island S07E01 video 2s, Sexe muvies 2019 1s, title: Horizon S1982E05 0s, big bang theory 4 2s, howard stern - 20191104 1s, fake taxi 1s, title: Beresford Signs Wonders 1s, visual studio full tutorial 1s.

DTS HD Master Audio . Surround Sound Test with original file - Продолжительность: 1:18 Ampol Phimphila Recommended for you. 1:18.

the real housewives of orange county s14e05 liar friendships on fire hdtv. 5 minutes ago. leila 2019 s01 e01 06 webrip hindi 720p x264 aac 5 1 esub. 13 minutes ago. nik collection 2. the enemy within s01e08 720p web x265 minx. dxo software.

bharg123, Jul 26, 2012.

DTS . Audio + English Subs. x264 @ 3530 Kbps Container. 1280 x 544 @ 24 FPS Audio Format : DTS . Ch @ 1510 Kbps.

logan on Fate Stay Night Heaven’s Feel Vo. 2 lost butterfly (BD . 64 DTS-HDMAx2) – Movie + Tokuten DVD: how can i get this with subtitles?  . 64 DTS-HDMAx2) – Movie + Tokuten DVD: how can i get this with subtitles? Nov 27, 07:25.

A young woman's faith is put to the ultimate test when she is forced to uncover the truth behind her husband's horrific visions.

[B][TMR BDRip] Favourite Hits Of Kollywood Vol-1 - BD Rip - 1080p- x264 - DTS - Esub - Team TMR[/B]
..:: Cover ::..

..:: Media Info ::..

Code:

General::
Format : Matroska
Format version : Version 2
File size : 7.97 GiB
Duration : 3h 6mn
Overall bit rate : 6 124 Kbps
Video::
Format : AVC
Format/Info : Advanced Video Codec
Format profile : [email protected]
Format settings, CABAC : Yes
Format settings, ReFrames : 4 frames
Muxing mode : Header stripping
Codec ID : V_MPEG4/ISO/AVC
Duration : 3h 6mn
Bit rate : 4 607 Kbps
Width : 1 920 pixels
Height : 816 pixels
Display aspect ratio : 2.35:1
Frame rate : 23.976 fps
Color space : YUV
Chroma subsampling : 4:2:0
Bit depth : 8 bits
Scan type : Progressive
Bits/(Pixel*Frame) : 0.123
Stream size : 5.85 GiB (73%)
Audio::
Format : DTS
Format/Info : Digital Theater Systems
Duration : 3h 6mn
Bit rate mode : Constant
Bit rate : 1 510 Kbps
Channel(s) : 6 channels
Channel positions : Front: L C R, Side: L R, LFE
Sampling rate : 48.0 KHz
Bit depth : 24 bits
Compression mode : Lossy
Stream size : 1.96 GiB (25%)
Title : Team TMR -DTS
Language : Tamil
Default : Yes
Sub::
Format : PGS
Muxing mode : zlib
Codec ID : S_HDMV/PGS
Codec ID/Info : The same subtitle format used on BDs/HD-DVDs
Title : Team TMR Eng
Language : English
Default : Yes
Forced : No

..:: Song List ::..

Code:

1. Molachu Moonu.. - Velayudham
2. Mun Andhi.. - 7aam Arivu
3. Unnaley.. - Osthe
4. Vaada Binleda.. - Mankatha
5. Sahana.. - Sivaji
6. Ennamo.. - Ko
7. Hosanna.. - Vinnaithaandi Varuvaayaa
8. Yaar Indha.. - Boss Engira Baskaran
9. Un Perey Theriyaadhu.. - Engeyum Eppodhum
10. Usurey Pogudhu.. - Raavanan
11. Maayam Seidhaayo.. - Velayudham
12. Un Perai.. - Angadi Theru
13. Yeno Yeno.. - Aadhavan
14. Nee Kobapattal.. - Villu
15. Malliga.. - Aegan
16. Hey Vaadi.. - Osthe
17. Yeley Lamma.. - 7aam Arivu
18. En Kaadhal Solla.. - Paiyaa
19. Vizhigalil.. - Deivathirumagal
20. Anbil Avan.. - Vinnaithaandi Varuvaayaa
21. Iragai Poley.. - Naan Mahan Alla
22. Zara Zara - Chikku Bukku
23. Nee Korinaal.. - Nootrenbadhu
24. Kannadi Nee.. - Mankatha
25. Venpaniye.. - Ko
26. Mannippaaya.. - Vinnaithaandi Varuvaayaa
27. Thuli Thuli.. - Paiyaa
28. Nilaa Nee - Pokkisham
29. Pookkal Pookkum - Madarasapattinam
30. Hasili Fisili.. - Aadhavan
31. Aiyley Aiyley.. - Boss Engira Baskaran
32. Amili Thumili.. - Ko
33. Omana Penney.. - Vinnaithaandi Varuvaayaa
34. Vaaraayo.. - Aadhavan
35. Kadhagalai Pesum.. - Angadi Theru
36. Adada Mazhaida.. - Paiyaa
37. Sotta Sotta.. - Engeyum Eppodhum
38. Yamma Yamma.. - 7aam Arivu

..:: Song Screen Shots ::..













Share with proper Credit Else Don't Download Here

Related music:
jab Tak Hai Jaan 2012 Bluray 1080p x264 DTS All Music Video download jab Tak Hai Jaan 2012 Bluray 1080p x264 DTS All Music Video
Other
Hindi
4.0 GB
4.9
/images/5/8/jab-tak-hai-jaan-2012-bluray-1080p-x264-dts-all-music-video.jpg
Ed Sheeran - The A Team 1080p HD - shadowCopy download Ed Sheeran - The A Team 1080p HD - shadowCopy
Video
English
150.8 MB
4.8
/images/5/4/ed-sheeran-the-a-team-1080p-hd-shadowcopy.jpg
Little Mix - Little Me 1080p Music Video download Little Mix - Little Me 1080p Music Video
Video
English
74.7 MB
4.9
/images/5/1/little-mix-little-me-1080p-music-video-.jpg
One Direction - You & I 1080p Music Video download One Direction - You & I 1080p Music Video
Video
English
111.1 MB
4.5
/images/5/5/one-direction-you-26-i-1080p-music-video-.jpg
Eminem-Space bound HD 1080P-1chin2three download Eminem-Space bound HD 1080P-1chin2three
Video
English
104.5 MB
4.3
/images/5/0/eminem-space-bound-hd-1080p-1chin2three.jpg
INNA - Wow 1080p Music Video download INNA - Wow 1080p Music Video
Video
English
152.3 MB
4.0
/images/noimage.jpg
One Direction - Midnight Memories X264 1080p TonyStark download One Direction - Midnight Memories X264 1080p TonyStark
Video
English
101.3 MB
4.4
/images/5/5/one-direction-midnight-memories-x264-1080p-tonystark.jpg