Files 42316
» » Rihanna - Stay 2013 M4A+MP4 x264 VX Ft. Mikky Ekko 1080p
Language: English
Size: 45.0 MB
Votes: 773
Downloaded: 27
Category: Video
Format: MP3, FLAC
4.5

File list

  • Rihanna Ft. Mikky Ekko - Stay (1080p) x264 [VX] [P2PDL].mp4 (40.7 MB)
  • 01 Rihanna - Stay (feat. Mikky Ekko).m4a (4.1 MB)
  • Cover.jpg (173.3 KB)
  • Rihanna Ft. Mikky Ekko - Stay (1080p) x264 [VX] [P2PDL].nfo (10.0 KB)
  • Torrent downloaded from P2PDL.com.txt (0.0 KB)

Justin Parker, Mikky Ekko.

Justin Parker, Mikky Ekko.

Video Format : AVC Format/Info : Advanced Video Codec Format profile : [email protected]

Rihanna ft. Mikky Ekko – Stay (2013). 30 Seconds To Mars – Stay (Originally by Rihanna feat. Анастасия Салиженко – Rihanna ft. Mikky Ekko - Stay (cover). Andrey Zubekhin ft. Anya Zelenko – Stay (Rihanna ft. Mikky Ekko cover). Rihanna – Stay ft. Mikky Ekko (cover Stefano Marocco). Mikky Ekko - Stay (cover. :00. Rihanna featuring Mikky Ekko – Stay. Rihanna - Stay Ft Mikky Ekko - ww. aytim. mp3 – Rihanna - Stay Ft Mikky Ekko . :28. Rihanna feat Mikky Ekko – Stay (Beatbreaker and XMind Bass Remix).

Please, upgrade your browser, OS or both. Rihanna Ft. Mikky Ekko - Stay (1080p) x264 .mp4.

Mikky Ekko Karaoke Hits Rihanna, Vol. 2, 2013 04:00. Out Trax - Stay Stay - Single, 2013 03:54. Sing Strike Karaoke - Stay Karaoke In Style Of Rihanna, 2015 04:01. Party Tyme Karaoke - Stay (Made Popular By Rihanna ft. Mikky Ekko) Party Tyme Karaoke - Pop Female Hits 8, 2018 03:59. Piano Gaga - Stay Rihanna Piano Hits, 2017 03:54. Piano Superstar - Stay Piano Hits of Rihanna Vol. 2, 2017 03:54. Karaoke Nation - Stay Hot Summer Instrumental Hits Ultimate Mix 2013, 2013 04:02. DJ Party Nation - Stay Teen Karaoke 2013, 2013 04:02

Stay (оригинал Rihanna feat. Makes me feel like I can't live without you.

Stay (оригинал Rihanna feat. Останься (перевод Eugenie из Moscow). Заставляет меня чувствовать, что я не смогу без тебя.

Music video for "Stay" by Rihanna featuring Mikky Ekko. Kanye West & Paul McCartney: FourFiveSeconds. Rihanna: The Monster. Rihanna: Princess of China.

Rihanna - Stay ft Mikky Ekko HD (Official Video).

a guest Feb 14th, 2013 288 Never.nfo 0 MB. Torrent downloaded from P2PDL.


Rihanna - Stay (Ft. Mikky Ekko) 2013 M4A+MP4 (1080p) x264 [VX] [P2PDL]
1080p Full HD MP4 Video
+
128 Kbps/VBR M4A Audio

Quote:


General
Complete name : Rihanna Ft. Mikky Ekko - Stay (1080p) x264 [VX] [P2PDL].mp4
Format : MPEG-4
Format profile : Base Media / Version 2
Codec ID : mp42
File size : 40.7 MiB
Duration : 4mn 7s
Overall bit rate mode : Variable
Overall bit rate : 1 380 Kbps
Video
Format : AVC
Format/Info : Advanced Video Codec
Format profile : [email protected]
Bit rate mode : Variable
Bit rate : 1 250 Kbps
Width : 1 920 pixels
Height : 1 080 pixels
Display aspect ratio : 16:9
Frame rate mode : Variable
Stream size : 36.9 MiB (91%)
Writing library : x264 core 129
Audio
Format : AAC
Format/Info : Advanced Audio Codec
Format profile : LC
Bit rate mode : Variable
Bit rate : 124 Kbps
Channel(s) : 2 channels
Channel positions : Front: L R
Sampling rate : 48.0 KHz
Stream size : 3.66 MiB (9%)
Subtitles : No

Screens:


Thumbs:



Quote:


Notes:
* Recommended to use latest version VLC Media Player.
* Install shark007 codecs in case of any kind of problem in playback (For non-VLC Media Player users).
* Alternatively, install Core AVC codecs, the fastest decoder that there is coupled with Community Center Codec Pack and play on Windows Media Player Classic.
Greets to: VYTO, a2zRG, MusiK_KinG, Kuroyukihime, Caveman, Ash968, Neon, TwentyForty, Masta, TorDigger and staff members at ExtraTorrent, TPB, H33T, KAT, , PublicHD, Ahashare, TorrentMafia, Limetorrents, BTScene, P2PDL, and all others
Encoder Notes: Looking For Early Access To Anything You Can Provide DVDScr, R5, DVDRips, BluRay, Direct Audio, Early Music
Releases, Seedboxes, Links, Dedicated Servers anything u can provide, Advance / Promo CDs/DVDs. If You Got anything to
offer contact me at "[email protected]"

Related music:
Saans Jab tak hai jaan 2012 1080p HD Mys download Saans Jab tak hai jaan 2012 1080p HD Mys
DVD
English
82.7 MB
4.5
/images/5/3/saans-jab-tak-hai-jaan-2012-1080p-hd-mys.jpg
Little Mix - Little Me 1080p Music Video download Little Mix - Little Me 1080p Music Video
Video
English
74.7 MB
4.9
/images/5/1/little-mix-little-me-1080p-music-video-.jpg
INNA - Wow 1080p Music Video download INNA - Wow 1080p Music Video
Video
English
152.3 MB
4.0
/images/noimage.jpg
Eminem Ft Rihanna - The Monster 1080p download Eminem Ft Rihanna - The Monster 1080p
Video
English
108.0 MB
4.7
/images/5/3/eminem-ft-rihanna-the-monster-1080p-.jpg
Drake Ft Rihanna - Take Care 1080p Music Video download Drake Ft Rihanna - Take Care 1080p Music Video
Video
English
52.6 MB
4.5
/images/5/6/drake-ft-rihanna-take-care-1080p-music-video-.jpg
One Direction - Midnight Memories X264 1080p TonyStark download One Direction - Midnight Memories X264 1080p TonyStark
Video
English
101.3 MB
4.4
/images/5/5/one-direction-midnight-memories-x264-1080p-tonystark.jpg
Taylor Swift - 22 2013 M4A+MP4 x264 VX 1080p download Taylor Swift - 22 2013 M4A+MP4 x264 VX 1080p
Video
English
40.3 MB
4.1
/images/5/5/taylor-swift-22-2013-m4a2bmp4-x264-vx-1080p.jpg
Coldplay Ft Rihanna - Princess Of China 1080p Music Video download Coldplay Ft Rihanna - Princess Of China 1080p Music Video
Video
English
98.5 MB
4.8
/images/5/5/coldplay-ft-rihanna-princess-of-china-1080p-music-video-.jpg