Files 42316
» » Anna Kendrick - Cups 1080p Pitch Perfect's When I'm Gone Director's Cut
Language: English
Size: 110.5 MB
Votes: 700
Downloaded: 49
Category: Video
Format: MP3, FLAC
4.9

File list

  • Anna Kendrick - Cups [Pitch Perfect's When I'm Gone] [Director's Cut] 1080p [Sbyky].mp4 (110.5 MB)

Music video by Anna Kendrick performing Cups (Pitch Perfect's "When I'm Gone") (Director's Cut). C) 2013 Universal Music Enterprises, a Division of UMG Recordings, Inc.

Music video by Anna Kendrick performing Cups (Pitch Perfect's "When I'm Gone") (Director's Cut). CUPS (pitch perfect s when I. Лицензиар. Peermusic, BMI - Broadcast Music In. ARESA, CMRRA, ASCAP, BMG Rights Management" и другие авторские общества (12).

Выберите имя/название: Anna Kendrick: Cups (Pitch Perfect's When I'm Gone). You're 'gonna miss me when I'm gone. Ты будешь скучать по мне, когда я уйду. I've got my ticket for the long way 'round. По популярности: Ariana Grande. У меня есть билет, чтобы уехать далеко-далеко. The one with the prettiest of views. Туда, где самые прекрасные пейзажи из всех, It's got mountains, it's got rivers.

Cups (Pitch Perfect’s When I’m Gone ) - Anna Kendrick. Открывайте новую музыку каждый день. Лента с персональными рекомендациями и музыкальными новинками, радио, подборки на любой вкус, удобное управление своей коллекцией. Миллионы композиций бесплатно и в хорошем качестве.

When I'm gone When I'm gone You’re gonna miss me when I'm gone You're gonna miss me by my hair You're gonna . The full version of the song that actress Anna Kendrick made famous in the movie Pitch Perfect.

When I'm gone When I'm gone You’re gonna miss me when I'm gone You're gonna miss me by my hair You're gonna miss me everywhere, oh You're gonna miss me when I’m gone When I'm gone When I'm gone You're gonna miss me when I'm gone You're gonna. miss me by my walk You're gonna miss me by my talk, oh You're gonna miss me when I'm gone. This single version of the song, retitled as the pop version is extended by an additional minute and features a pop beat in it’s instrumental.

Cups (Pitch Perfect's "When I'm Gone")". The song's music video was directed by Pitch Perfect's director Jason Moore. It was released on April 12, 2013 on Anna Kendrick's Vevo channel

Cups (Pitch Perfect's "When I'm Gone")". Single by Anna Kendrick. from the album Pitch Perfect (Original Motion Picture Soundtrack). It was released on April 12, 2013 on Anna Kendrick's Vevo channel. The video opens with Anna Kendrick in a restaurant's kitchen cutting dough into biscuits with a plastic cup while looking up longingly at some postcards of far-away places, such as Scotland and.


General
Complete name : Anna Kendrick - Cups [Pitch Perfect's When I'm Gone] [Director's Cut] 1080p [Sbyky].mp4
Format : MPEG-4
Format profile : Base Media / Version 2
Codec ID : mp42
File size : 110 MiB
Duration : 4mn 21s
Overall bit rate mode : Variable
Overall bit rate : 3 542 Kbps
Encoded date : UTC 2013-05-01 15:41:18
Tagged date : UTC 2013-05-01 15:41:18
Video
ID : 1
Format : AVC
Format/Info : Advanced Video Codec
Format profile : [email protected]
Format settings, CABAC : Yes
Format settings, ReFrames : 1 frame
Codec ID : avc1
Codec ID/Info : Advanced Video Coding
Duration : 4mn 21s
Bit rate : 3 347 Kbps
Maximum bit rate : 7 598 Kbps
Width : 1 920 pixels
Height : 1 080 pixels
Display aspect ratio : 16:9
Frame rate mode : Constant
Frame rate : 23.976 fps
Color space : YUV
Chroma subsampling : 4:2:0
Bit depth : 8 bits
Scan type : Progressive
Bits/(Pixel*Frame) : 0.067
Stream size : 104 MiB (95%)
Tagged date : UTC 2013-05-01 15:41:22
Audio
ID : 2
Format : AAC
Format/Info : Advanced Audio Codec
Format profile : LC
Codec ID : 40
Duration : 4mn 21s
Bit rate mode : Variable
Bit rate : 192 Kbps
Maximum bit rate : 203 Kbps
Channel(s) : 2 channels
Channel positions : Front: L R
Sampling rate : 44.1 KHz
Compression mode : Lossy
Stream size : 5.99 MiB (5%)
Title : IsoMedia File Produced by Google, 5-11-2011
Encoded date : UTC 2013-05-01 15:41:21
Tagged date : UTC 2013-05-01 15:41:22
Shared By Sbyky

Related music:
PSY - Gentleman 1080p Music Video download PSY - Gentleman 1080p Music Video
Video
English
145.3 MB
4.7
/images/5/2/psy-gentleman-1080p-music-video-.jpg
J Cole - Work Out 1080p Music Video download J Cole - Work Out 1080p Music Video
Video
English
153.3 MB
4.1
/images/5/3/j-cole-work-out-1080p-music-video-.jpg
Little Mix - Little Me 1080p Music Video download Little Mix - Little Me 1080p Music Video
Video
English
74.7 MB
4.9
/images/5/1/little-mix-little-me-1080p-music-video-.jpg
Kendrick Lamar - Bitch, Don't Kill My Vibe 1080p download Kendrick Lamar - Bitch, Don't Kill My Vibe 1080p
Video
English
146.2 MB
4.0
/images/5/0/kendrick-lamar-bitch2c-don27t-kill-my-vibe-1080p-.jpg
J Cole Ft Missy Elliott - Nobody's Perfect 1080p download J Cole Ft Missy Elliott - Nobody's Perfect 1080p
Video
English
79.0 MB
4.9
/images/5/2/j-cole-ft-missy-elliott-nobody27s-perfect-1080p-.jpg
INNA - Wow 1080p Music Video download INNA - Wow 1080p Music Video
Video
English
152.3 MB
4.0
/images/noimage.jpg
Wiz Khalifa Ft Akon - Let It Go 1080p Music Video download Wiz Khalifa Ft Akon - Let It Go 1080p Music Video
Video
English
117.5 MB
4.2
/images/5/6/wiz-khalifa-ft-akon-let-it-go-1080p-music-video-.jpg
Stromae - Papaoutai 1080p Music Video download Stromae - Papaoutai 1080p Music Video
Video
French
83.4 MB
4.5
/images/5/3/stromae-papaoutai-1080p-music-video-.jpg
Anna Kendrick - Cups 720p Pitch Perfect's When I'm Gone Director's Cut download Anna Kendrick - Cups 720p Pitch Perfect's When I'm Gone Director's Cut
Video
English
60.3 MB
4.9
/images/5/5/anna-kendrick-cups-720p-pitch-perfect5c27s-when-i5c27m-gone-director5c27s-cut-.jpg
2 Chainz Ft Cap 1 - Where U Been 1080p download 2 Chainz Ft Cap 1 - Where U Been 1080p
Video
English
167.6 MB
4.7
/images/5/5/2-chainz-ft-cap-1-where-u-been-1080p-.jpg