Files 42316
» » 2 Chainz Ft Drake - No Lie 720p
Language: English
Size: 56.5 MB
Votes: 527
Downloaded: 75
Category: Video
Format: MP3, FLAC
4.1

File list

  • 2 Chainz Ft. Drake - No Lie [Explicit] 720p [Sbyky].MP4 (56.5 MB)

Drake - no lie watch video in 720P. For entertainment purposes only!!!! 2 chainz ft. Drake - no lie.

Drake - no lie watch video in 720P. Watch video in 720P HD or 1080P HD for better quality!! Категория. Предложено пользователем UMG. Drake - Money In The Grave ft. Rick Ross. Aubrey Drake Graham, Marz, Tauheed Epps, Michael Williams.

Produced by 40 & Mike WiLL Made-It. EarDrummers, Mike WiLL Made-It Yah! . 2 Chainz and Champagne, you want true? That’s true enough Forbes list like every year, my office is my tour bus She came through, she brought food, she got fucked, she knew whassup She think I’m the realest out and I say, "Damn, that makes two of us" Aww, that look like what’s her name, chances are it’s what's her name Chances are if she.

2 Chainz feat Drake, Busta Rhymes, Tyga, and Lil Wayne – No Lie (Remix). 2 Chainz – No Lie. 3:31. Various Artists – 2 Chainz ft. Drake - No Lie (DatPif. :36.

Drake) - Hip Hop's Finest. Открывайте новую музыку каждый день. Исполнитель: Hip Hop's Finest. Лента с персональными рекомендациями и музыкальными новинками, радио, подборки на любой вкус, удобное управление своей коллекцией. Миллионы композиций бесплатно и в хорошем качестве.

Robin Schulz Speechless (feat.

2 Chainz ft Drake - No Lie. 2 Chainz ft Drake - No Lie. Terms of Service. Robin Schulz Speechless (feat.

Drake –Sacrifices Ft 2 Chainz & Young Thug. drake –sacrifices feat 2 chainz x young thug. Drake –No Lie (Bassboosted by JB ONE). 2 Chainz & Big Sean. AAP Rocky –Fkin Problems feat Drake 2 Chainz am. :38. Разные исполнители –I Do It (clean) (Instrumental versio. :01. Drake, 2 Chainz, Kendrick Lamar –Fkin Problems feat Drake, 2 Chainz &. :07.

Download MP3. MP3 320Kbps, . 6 Mb MP3 128Kbps, . 7 Mb MP3 64Kbps, . 3 Mb. Drake. 1 2 3 4 5. Related songs.

Видеоклип американского рэппера 2 Chainz совместно с Drake на песню No Lie из альбома Based on a . Видеоклип американского рэппера 2 Chainz совместно с Drake на песню No Lie из альбома Based on a .


General
Complete name : 2 Chainz Ft. Drake - No Lie [Explicit] 720p [Sbyky].MP4
Format : MPEG-4
Format profile : Base Media / Version 2
Codec ID : mp42
File size : 56.5 MiB
Duration : 4mn 3s
Overall bit rate mode : Variable
Overall bit rate : 1 947 Kbps
Encoded date : UTC 2012-06-20 17:49:26
Tagged date : UTC 2012-06-20 17:49:26
Video
ID : 1
Format : AVC
Format/Info : Advanced Video Codec
Format profile : [email protected]
Format settings, CABAC : Yes
Format settings, ReFrames : 1 frame
Codec ID : avc1
Codec ID/Info : Advanced Video Coding
Duration : 4mn 3s
Bit rate : 1 795 Kbps
Maximum bit rate : 4 854 Kbps
Width : 1 280 pixels
Height : 720 pixels
Display aspect ratio : 16:9
Frame rate mode : Constant
Frame rate : 23.976 fps
Color space : YUV
Chroma subsampling : 4:2:0
Bit depth : 8 bits
Scan type : Progressive
Bits/(Pixel*Frame) : 0.081
Stream size : 52.1 MiB (92%)
Tagged date : UTC 2012-06-20 17:49:26
Audio
ID : 2
Format : AAC
Format/Info : Advanced Audio Codec
Format profile : LC
Codec ID : 40
Duration : 4mn 3s
Bit rate mode : Variable
Bit rate : 149 Kbps
Maximum bit rate : 190 Kbps
Channel(s) : 2 channels
Channel positions : Front: L R
Sampling rate : 44.1 KHz
Compression mode : Lossy
Stream size : 4.34 MiB (8%)
Title : IsoMedia File Produced by Google, 5-11-2011
Encoded date : UTC 2012-06-20 17:49:26
Tagged date : UTC 2012-06-20 17:49:26
Shared By Sbyky

Related music:
Cher Lloyd Ft Astro - Want U Back 720p Music Video download Cher Lloyd Ft Astro - Want U Back 720p Music Video
Video
English
46.5 MB
4.1
/images/5/9/cher-lloyd-ft-astro-want-u-back-720p-music-video-.jpg
2 Chainz Ft Kanye West - Birthday Song 720p download 2 Chainz Ft Kanye West - Birthday Song 720p
Video
English
112.4 MB
4.8
/images/5/7/2-chainz-ft-kanye-west-birthday-song-720p-.jpg
Miguel - Adorn 720p Music Video download Miguel - Adorn 720p Music Video
Video
English
77.1 MB
4.5
/images/5/3/miguel-adorn-720p-music-video-.jpg
2 Chainz - I'm Different 720p download 2 Chainz - I'm Different 720p
Video
English
76.5 MB
4.3
/images/5/0/2-chainz-i27m-different-720p-.jpg
2 Chainz Ft Cap 1 - Where U Been 1080p download 2 Chainz Ft Cap 1 - Where U Been 1080p
Video
English
167.6 MB
4.7
/images/5/5/2-chainz-ft-cap-1-where-u-been-1080p-.jpg
P!nk - Try 720p Music Video download P!nk - Try 720p Music Video
Video
English
54.4 MB
4.9
/images/5/7/p21nk-try-720p-music-video-.jpg
2 Chainz Ft Cap 1 - Where U Been 720p download 2 Chainz Ft Cap 1 - Where U Been 720p
Video
English
84.8 MB
4.7
/images/5/6/2-chainz-ft-cap-1-where-u-been-720p-.jpg
Drake Ft Rihanna - Take Care 720p Music Video download Drake Ft Rihanna - Take Care 720p Music Video
Video
English
35.7 MB
4.5
/images/5/7/drake-ft-rihanna-take-care-720p-music-video-.jpg
Drake - Started From The Bottom 720p download Drake - Started From The Bottom 720p
Video
English
105.7 MB
4.2
/images/5/6/drake-started-from-the-bottom-720p-.jpg