Files 42316
» » Nicki Minaj Ft Cassie - The Boys 720p
Language: English
Size: 93.8 MB
Votes: 283
Downloaded: 31
Category: Video
Format: MP3, FLAC
4.7

File list

  • Nicki Minaj Ft. Cassie - The Boys [Explicit] 720p [Sbyky].mp4 (93.8 MB)

The boys always spending all their money on love The boys always spending all .

The boys always spending all their money on love The boys always spending all their money on love They wanna touch it, taste it, see it, feel it, bone it, own it, yeah, yeah Dollar, dollar, paper chase it, get that money, yeah, yeah. You get high, fuck a bunch of girls And then cry on top of the world I hope you have the time of your life I hope I don't lose it tonight

The Boys" is a song recorded by American rapper and singer Nicki Minaj and American singer Cassie. It was written by Minaj, Anjulie Persaud, Jonas Jeberg and Jean Baptiste, and produced by the latter two.

The Boys" is a song recorded by American rapper and singer Nicki Minaj and American singer Cassie. The song was released on September 13, 2012, through Cash Money, Young Money and Universal Republic as the lead single from the reissue of Minaj's second studio album, Pink Friday: Roman Reloaded – The Re-Up (2012).

Cassie - The Boys (Master 1080p) Video: MPEG4 Video 1920x1080 (16:9) 2. 76fps 10200Kbps Audio: AAC 48000Hz stereo 320 kbps. Migos ft. Drake - Walk It Talk It (2018) [Master

Cassie - The Boys (Master 1080p) Video: MPEG4 Video 1920x1080 (16:9) 2. Category: MasterRip Views: 893 Added by: abel Tags: Поиск. Drake - Walk It Talk It (2018). Christina Aguilera - Fighter (2002).

The Boys - Nicki Minaj featuring Cassie. The people that are inclined to hate are also inclined to belosers. A loser could never congratulate a winner – it’s not in them

The Boys - Nicki Minaj featuring Cassie. Has been played on. United States 22. Radio La Corpeña 504. 14. Urban Knights Radio. A loser could never congratulate a winner – it’s not in them. Now playing: Shawn Mendes Señorita.

Новый видеоклип Nicki Minaj совместно с Cassie на песню The Boys из альбома Pink Friday: Roman Reloaded – The Re-Up (2012). Новый видеоклип Nicki Minaj совместно с Cassie на песню The Boys из альбома Pink Friday: Roman Reloaded – The Re-Up (2012).

Nicki Minaj ft. Cassie - The Boys. Nicki Minaj - The Boys Nicki Minaj - The Boys Nicki Minaj - The Boys. Nicki Minaj - The Boys.


General
Complete name : Nicki Minaj Ft. Cassie - The Boys [Explicit] 720p [Sbyky].mp4
Format : MPEG-4
Format profile : Base Media / Version 2
Codec ID : mp42
File size : 93.8 MiB
Duration : 4mn 47s
Overall bit rate mode : Variable
Overall bit rate : 2 736 Kbps
Encoded date : UTC 2013-04-08 11:33:42
Tagged date : UTC 2013-04-08 11:33:42
Video
ID : 1
Format : AVC
Format/Info : Advanced Video Codec
Format profile : [email protected]
Format settings, CABAC : Yes
Format settings, ReFrames : 1 frame
Codec ID : avc1
Codec ID/Info : Advanced Video Coding
Duration : 4mn 47s
Bit rate : 2 542 Kbps
Maximum bit rate : 4 500 Kbps
Width : 1 280 pixels
Height : 720 pixels
Display aspect ratio : 16:9
Frame rate mode : Constant
Frame rate : 23.976 fps
Color space : YUV
Chroma subsampling : 4:2:0
Bit depth : 8 bits
Scan type : Progressive
Bits/(Pixel*Frame) : 0.115
Stream size : 87.1 MiB (93%)
Tagged date : UTC 2013-04-08 11:33:52
Audio
ID : 2
Format : AAC
Format/Info : Advanced Audio Codec
Format profile : LC
Codec ID : 40
Duration : 4mn 47s
Bit rate mode : Variable
Bit rate : 192 Kbps
Maximum bit rate : 202 Kbps
Channel(s) : 2 channels
Channel positions : Front: L R
Sampling rate : 44.1 KHz
Compression mode : Lossy
Stream size : 6.58 MiB (7%)
Title : IsoMedia File Produced by Google, 5-11-2011
Encoded date : UTC 2013-04-08 11:33:48
Tagged date : UTC 2013-04-08 11:33:52
Shared By Sbyky

Related music:
2 Chainz - I'm Different 720p download 2 Chainz - I'm Different 720p
Video
English
76.5 MB
4.3
/images/5/0/2-chainz-i27m-different-720p-.jpg
Eminem - Berzerk 720p download Eminem - Berzerk 720p
Video
English
97.3 MB
4.2
/images/5/9/eminem-berzerk-720p-.jpg
Wale Ft Nicki Minaj & Juicy J - Clappers 720p download Wale Ft Nicki Minaj & Juicy J - Clappers 720p
Video
English
103.6 MB
4.0
/images/5/7/wale-ft-nicki-minaj-26-juicy-j-clappers-720p-.jpg
John Legend - All Of Me 720p Music Video download John Legend - All Of Me 720p Music Video
Video
English
62.7 MB
4.1
/images/5/4/john-legend-all-of-me-720p-music-video-.jpg
Ciara Ft Nicki Minaj - I'm Out 720p download Ciara Ft Nicki Minaj - I'm Out 720p
Video
English
55.3 MB
4.4
/images/5/3/ciara-ft-nicki-minaj-i27m-out-720p-.jpg
2 Chainz Ft Cap 1 - Where U Been 720p download 2 Chainz Ft Cap 1 - Where U Been 720p
Video
English
84.8 MB
4.7
/images/5/6/2-chainz-ft-cap-1-where-u-been-720p-.jpg
Little Mix - Little Me 720p Music Video download Little Mix - Little Me 720p Music Video
Video
English
37.9 MB
4.1
/images/5/5/little-mix-little-me-720p-music-video-.jpg
Rihanna - Pour It Up 720p download Rihanna - Pour It Up 720p
Video
English
54.9 MB
4.7
/images/5/1/rihanna-pour-it-up-720p-.jpg