Files 42316
» » Maitre Gims - Bella 720p Music Video
Language: French
Size: 59.5 MB
Votes: 941
Downloaded: 50
Category: Video
Format: MP3, FLAC
4.6

File list

  • Maitre Gims - Bella [Music Video] 720p [Sbyky].mp4 (59.5 MB)

Maître Gims - Bella (Clip officiel).

Maître Gims - Bella (Clip officiel).

Смотреть клип на песню Maître Gims Bella или Maître Gims Bella Clip Officiel. NAESTRO Bella Ciao Ft Maître GIMS VITAA DADJU SLIMANE. GIMS Maluma Hola Señorita Maria Official Video. Слушай и скачивай музыку на сайте Bmamusic.

More Videos by MAITRE GIMS. Uploaded: 2013/06/28. Premier album de MAITRE GIMS - SUBLIMINAL. depuis le 20 Mai 2013. 4 years ago. josemarbella86. lo mejor del mundo marbellaaaaaa jajaja viva mi tierra.

Music video · 2013 · 4:42 min Free with Apple Music subscription. Get Apple Music on iOS, Android, Mac, and Windows. (C) 2013 Wati b. View on Apple Music.

Music video by Maître Gims performing Bella. David Guetta - Play Hard (Official Video) ft. Ne-Yo, Akon.

One Direction - History (Official Video). MØ) (Official Music Video). 1280 720. Width: px. Height: px.

Fais ton duo vidéo avec Maître Gims sur Est-ce que tu m'aimes ? ! Une rencontre avec Maître Gims et. .


General
Complete name : Maitre Gims - Bella [Music Video] 720p [Sbyky].mp4
Format : MPEG-4
Format profile : Base Media / Version 2
Codec ID : mp42
File size : 59.5 MiB
Duration : 4mn 42s
Overall bit rate mode : Variable
Overall bit rate : 1 767 Kbps
Encoded date : UTC 2013-06-20 08:06:51
Tagged date : UTC 2013-06-20 08:06:51
Video
ID : 1
Format : AVC
Format/Info : Advanced Video Codec
Format profile : [email protected]
Format settings, CABAC : Yes
Format settings, ReFrames : 1 frame
Format settings, GOP : M=1, N=60
Codec ID : avc1
Codec ID/Info : Advanced Video Coding
Duration : 4mn 42s
Bit rate : 1 573 Kbps
Maximum bit rate : 3 210 Kbps
Width : 1 280 pixels
Height : 720 pixels
Display aspect ratio : 16:9
Frame rate mode : Constant
Frame rate : 25.000 fps
Color space : YUV
Chroma subsampling : 4:2:0
Bit depth : 8 bits
Scan type : Progressive
Bits/(Pixel*Frame) : 0.068
Stream size : 52.9 MiB (89%)
Tagged date : UTC 2013-06-20 08:06:58
Audio
ID : 2
Format : AAC
Format/Info : Advanced Audio Codec
Format profile : LC
Codec ID : 40
Duration : 4mn 42s
Bit rate mode : Variable
Bit rate : 192 Kbps
Maximum bit rate : 203 Kbps
Channel(s) : 2 channels
Channel positions : Front: L R
Sampling rate : 44.1 KHz
Compression mode : Lossy
Stream size : 6.46 MiB (11%)
Title : IsoMedia File Produced by Google, 5-11-2011
Encoded date : UTC 2013-06-20 08:06:55
Tagged date : UTC 2013-06-20 08:06:58
Shared By Sbyky

Related music:
Emily Kinney - Kids 720p Music Video download Emily Kinney - Kids 720p Music Video
Video
English
60.5 MB
4.2
/images/5/3/emily-kinney-kids-720p-music-video-.jpg
Cher Lloyd Ft T I - I Wish 720p Music Video download Cher Lloyd Ft T I - I Wish 720p Music Video
Video
English
60.6 MB
4.3
/images/5/1/cher-lloyd-ft-t-i-i-wish-720p-music-video-.jpg
John Legend - All Of Me 720p Music Video download John Legend - All Of Me 720p Music Video
Video
English
62.7 MB
4.1
/images/5/4/john-legend-all-of-me-720p-music-video-.jpg
Taylor Swift - We Are Never Ever Getting Back Together 720p Music Video download Taylor Swift - We Are Never Ever Getting Back Together 720p Music Video
Video
English
61.4 MB
4.0
/images/5/0/taylor-swift-we-are-never-ever-getting-back-together-720p-music-video-.jpg
J-Hen - Sex Instructor 720p Music Video download J-Hen - Sex Instructor 720p Music Video
Video
English
36.7 MB
4.7
/images/5/3/j-hen-sex-instructor-720p-music-video-.jpg
Stromae - Papaoutai 720p Music Video download Stromae - Papaoutai 720p Music Video
Video
French
41.8 MB
4.6
/images/5/0/stromae-papaoutai-720p-music-video-.jpg
Ke$ha - Dirty Love 720p Music Video download Ke$ha - Dirty Love 720p Music Video
Video
English
77.0 MB
4.1
/images/5/7/ke24ha-dirty-love-720p-music-video-.jpg
J Cole - Work Out 720p Music Video download J Cole - Work Out 720p Music Video
Video
English
79.9 MB
4.2
/images/5/9/j-cole-work-out-720p-music-video-.jpg
Little Mix - Little Me 720p Music Video download Little Mix - Little Me 720p Music Video
Video
English
37.9 MB
4.1
/images/5/5/little-mix-little-me-720p-music-video-.jpg