Files 42316
» » Jay Sean Feat Karl Wolf Radhika Vekaria - Yalla Asia720p Qatar Asian Cup 2011 HD RaHuL tHe HuNk
Language: English
Size: 33.6 MB
Votes: 648
Downloaded: 24
Category: Video
Format: MP3, FLAC
4.9

File list

  • Jay Sean Feat. Karl Wolf & Radhika Vekaria - Yalla Asia(Qatar Asian Cup 2011).mp4 (33.6 MB)

Yalla Asia was composed and written by Radhika Vekaria, Max Herman and Zoulikha El Fassi

Yalla Asia was composed and written by Radhika Vekaria, Max Herman and Zoulikha El Fassi. Max Herman produced the record for Zoul Projects 2011. Concerns and controversies. The AFC Asian Cup 2011 was not without controversy as concerns were risen about the extremely low crowds at most Asian Cup games not featuring the host nation Qatar. The average attendance was just 12,006, much lower than the previous AFC Asian Cup tournaments.

Yalla Asia is a song featuring Jay Sean, Karl Wolf and Radhika and is created by Executive Producer Zoul Projects to promote the Qatar 2011 . Music and Lyrics composed and written by Radhika Vekaria and Max Herman.

Yalla Asia is a song featuring Jay Sean, Karl Wolf and Radhika and is created by Executive Producer Zoul Projects to promote the Qatar 2011 Asian Cup held in Doha 2011. General Complete name :Jay Sean Feat. Karl Wolf & Radhika Vekaria - Yalla Asia(Qatar Asian Cup 2011).

Directed by Jelle Posthuma. With Jay Sean, Radhika Vekaria, Karl Wolf. Karl Wolf & Radhika Vekaria: Yalla Asia (2011). Video 3 min Short, Music.

Jay Sean ft Karl Wolf, Radhika – YALLA ASIA (2011). Jay Sean (ww. reshmp3music. ru) – Yalla Asia Feat Karl Wolf & Radhika Vekaria. 101. Jay Sean & Karl Wolf Feat. Jay Sean Ft. Karl Wolf & Radhika Vekaria – Yalla A. 3:19. 100 Jay Sean & Karl Wolf feat. Radhika Vekaria – Yalla Asia. Karl Wolf & Radhika Vekaria ww. NBxBeatz. com Jay Sean - Yalla Asia (CDQ). Jay Sean – Yalla Asia Feat Karl Wolf & Radhika Vekaria.

January 31, 2011 ·. ♥Bibou♥◄◄◄◄. A very trendy dance for the youth: Afro House. 10,565,043 Views · September 16.

Full HD Music Video Sung by Jay Sean. Radhika Vekaria & Karl Wolf File Download Information. Music video by Jay Sean performing "Yalla Asia" along with the feat of Radhika Vekaria & Karl Wolf

Full HD Music Video Sung by Jay Sean. You can download Yalla Asia ft. Radhika Vekaria & Karl Wolf (Jay Sean ft. Radhi. 720 P & 1080 P High Definition Blu-ray Quality video to your computer for free. Video Format: MP4 HD (can be run on any Video Player). Music video by Jay Sean performing "Yalla Asia" along with the feat of Radhika Vekaria & Karl Wolf. This video length is 3mn & 25s. Frame height and width are respectively 1280X720 and . mv) format video.

Karl Wolf & Radhika Vekaria, Song: Yalla Asia, Duration: 3:25, File type: mp3. №2381594283. Karl Wolf & Radhika Vekaria Yalla Asia CDQ. (play). Karl Wolf & Radhika Vekaria Yalla Asia.

Song I wrote and produced with Radhika Vekaria for The Asian Cup held in Qatar in 2011, feat Jay Sean, Karl Wolf and Radhika.

About The Song-

Yalla Asia is a song featuring Jay Sean, Karl Wolf and Radhika and is created by Executive Producer Zoul Projects to promote the Qatar 2011 Asian Cup held in Doha 2011. Music and Lyrics composed and written by Radhika Vekaria and Max Herman.

Screenshots-






Media Info-

General
Complete name :Jay Sean Feat. Karl Wolf & Radhika Vekaria - Yalla Asia(Qatar Asian Cup 2011).mp4
Format : MPEG-4
Format profile : Base Media
Codec ID : isom
File size : 33.6 MiB
Duration : 3mn 21s
Overall bit rate : 1 398 Kbps
Writing application : Lavf52.34.0
Video
ID : 1
Format : AVC
Format/Info : Advanced Video Codec
Format profile : [email protected]
Format settings, CABAC : Yes
Format settings, ReFrames : 1 frame
Codec ID : avc1
Codec ID/Info : Advanced Video Coding
Duration : 3mn 21s
Bit rate mode : Variable
Bit rate : 1 267 Kbps
Width : 1 280 pixels
Height : 720 pixels
Display aspect ratio : 16:9
Frame rate mode : Constant
Frame rate : 25.000 fps
Color space : YUV
Chroma subsampling : 4:2:0
Bit depth : 8 bits
Scan type : Progressive
Bits/(Pixel*Frame) : 0.055
Stream size : 30.5 MiB (91%)
Audio
ID : 2
Format : AAC
Format/Info : Advanced Audio Codec
Format profile : LC
Codec ID : 40
Duration : 3mn 21s
Bit rate mode : Variable
Bit rate : 127 Kbps
Channel(s) : 2 channels
Channel positions : Front: L R
Sampling rate : 44.1 KHz
Compression mode : Lossy
Stream size : 3.06 MiB (9%)
Enjoy-

Related music:
Maher Zain - Number One For Me 720p Music Video download Maher Zain - Number One For Me 720p Music Video
Video
English
72.8 MB
4.8
/images/5/8/maher-zain-number-one-for-me-720p-music-video-.jpg
Meri Zindagi VIDEO Song 1080p - Bhaag Johnny - Rahul Vaidya mp4 download Meri Zindagi VIDEO Song 1080p - Bhaag Johnny - Rahul Vaidya mp4
Video
Hindi
61.1 MB
4.1
/images/5/3/meri-zindagi-video-song-1080p-bhaag-johnny-rahul-vaidya-mp4.jpg
Kelly Rowland Ft Big Sean - Lay It On Me 720p Music Video download Kelly Rowland Ft Big Sean - Lay It On Me 720p Music Video
Video
English
52.7 MB
4.1
/images/5/6/kelly-rowland-ft-big-sean-lay-it-on-me-720p-music-video-.jpg
T-Pain feat Chris Brown - Best Love Song 1080p Anky download T-Pain feat Chris Brown - Best Love Song 1080p Anky
Video
English
155.6 MB
4.4
/images/5/6/t-pain-feat-chris-brown-best-love-song-1080p-anky.jpg
Sean Kingston - One A Way 1080p mp4 download Sean Kingston - One A Way 1080p mp4
Video
English
97.6 MB
4.6
/images/5/9/sean-kingston-one-a-way-1080p-mp4.jpg
Ariana Grande Ft Big Sean - Right There 720p Music Video download Ariana Grande Ft Big Sean - Right There 720p Music Video
Video
English
63.4 MB
4.1
/images/5/6/ariana-grande-ft-big-sean-right-there-720p-music-video-.jpg
Ik Tu Hi Tu Hi - Mausam 720P HD Video Song 2011 download Ik Tu Hi Tu Hi - Mausam 720P HD Video Song 2011
Video
Hindi
86.3 MB
4.4
/images/5/7/ik-tu-hi-tu-hi-mausam-720p-hd-video-song-2011.jpg