Files 42316
» » Bon Jovi - Because We Can 720p Music Video
Language: English
Size: 52.1 MB
Votes: 072
Downloaded: 38
Category: Video
Format: MP3, FLAC
4.7

File list

  • Bon Jovi - Because We Can [Music Video] 720p [Sbyky].mp4 (52.1 MB)

Bon Jovi-Because We Can(music video).

Bon Jovi-Because We Can(music video).

Because We Can Artist Bon Jovi Director Fisher Stevens Label Unknown; no label specified Year. Music video by Bon Jovi performing Because We Can. (C) 2,013 The Island Def Jam Music Group.

Новый видеоклип американской хард-рок группы Bon Jovi на песню Because We Can из альбома What About Now (2013). Новый видеоклип американской хард-рок группы Bon Jovi на песню Because We Can из альбома What About Now (2013).

Because We Can - A Tribute to Bon Jovi - Music Ministry. Открывайте новую музыку каждый день. Лента с персональными рекомендациями и музыкальными новинками, радио, подборки на любой вкус, удобное управление своей коллекцией. Миллионы композиций бесплатно и в хорошем качестве.

Tag(s): Bon Jovi Sbyky. Video ID : 1 Format : AVC Format/Info : Advanced Video Codec Format profile : [email protected] 1 Format settings, CABAC : Yes Format settings, ReFrames : 1 frame Codec ID : avc1 Codec ID/Info : Advanced Video Coding Duration : 4mn 1s Bit rate : 1 617 Kbps Maximum bit rate : 4 067 Kbps Width : 1 280 pixels Height : 720 pixels Display aspect ratio : 16:9.

BON JOVI Because We Can – The Tour Announced; New Album Due In The Spring. Bon Jovi performed the single, from the reissued version of their This House Is Not For Sale album, on CBS' The Late Show With Stephen Colbert on February 22nd.

BON JOVI Because We Can – The Tour Announced; New Album Due In The Spring Bon Jovi performed the single, from the reissued version of their This House Is Not For Sale album, on CBS' The Late Show With Stephen Colbert on February 22nd. You can also watch video of that performance. Bon Jovi’s former album, This House Is Not for Sale, is back atop the Billboard 200 chart for a second week. The set re-enters the tally with 120,000 equivalent album units earned in the week ending March 1st, according to Nielsen Music, up from a negligible figure in the previous week.


General
Complete name : Bon Jovi - Because We Can [Music Video] 720p [Sbyky].mp4
Format : MPEG-4
Format profile : Base Media / Version 2
Codec ID : mp42
File size : 52.1 MiB
Duration : 4mn 1s
Overall bit rate mode : Variable
Overall bit rate : 1 812 Kbps
Encoded date : UTC 2013-04-08 10:07:27
Tagged date : UTC 2013-04-08 10:07:27
Video
ID : 1
Format : AVC
Format/Info : Advanced Video Codec
Format profile : [email protected]
Format settings, CABAC : Yes
Format settings, ReFrames : 1 frame
Codec ID : avc1
Codec ID/Info : Advanced Video Coding
Duration : 4mn 1s
Bit rate : 1 617 Kbps
Maximum bit rate : 4 067 Kbps
Width : 1 280 pixels
Height : 720 pixels
Display aspect ratio : 16:9
Frame rate mode : Constant
Frame rate : 23.976 fps
Color space : YUV
Chroma subsampling : 4:2:0
Bit depth : 8 bits
Scan type : Progressive
Bits/(Pixel*Frame) : 0.073
Stream size : 46.5 MiB (89%)
Tagged date : UTC 2013-04-08 10:07:29
Audio
ID : 2
Format : AAC
Format/Info : Advanced Audio Codec
Format profile : LC
Codec ID : 40
Duration : 4mn 1s
Bit rate mode : Variable
Bit rate : 192 Kbps
Maximum bit rate : 202 Kbps
Channel(s) : 2 channels
Channel positions : Front: L R
Sampling rate : 44.1 KHz
Compression mode : Lossy
Stream size : 5.53 MiB (11%)
Title : IsoMedia File Produced by Google, 5-11-2011
Encoded date : UTC 2013-04-08 10:07:29
Tagged date : UTC 2013-04-08 10:07:29
Shared By Sbyky

Related music:
Emily Kinney - Kids 720p Music Video download Emily Kinney - Kids 720p Music Video
Video
English
60.5 MB
4.2
/images/5/3/emily-kinney-kids-720p-music-video-.jpg
PSY - Gentleman 720p Music Video download PSY - Gentleman 720p Music Video
Video
English
77.6 MB
4.9
/images/5/6/psy-gentleman-720p-music-video-.jpg
Cher Lloyd Ft T I - I Wish 720p Music Video download Cher Lloyd Ft T I - I Wish 720p Music Video
Video
English
60.6 MB
4.3
/images/5/1/cher-lloyd-ft-t-i-i-wish-720p-music-video-.jpg
John Legend - All Of Me 720p Music Video download John Legend - All Of Me 720p Music Video
Video
English
62.7 MB
4.1
/images/5/4/john-legend-all-of-me-720p-music-video-.jpg
Taylor Swift - We Are Never Ever Getting Back Together 720p Music Video download Taylor Swift - We Are Never Ever Getting Back Together 720p Music Video
Video
English
61.4 MB
4.0
/images/5/0/taylor-swift-we-are-never-ever-getting-back-together-720p-music-video-.jpg
Stromae - Papaoutai 720p Music Video download Stromae - Papaoutai 720p Music Video
Video
French
41.8 MB
4.6
/images/5/0/stromae-papaoutai-720p-music-video-.jpg
Ke$ha - Dirty Love 720p Music Video download Ke$ha - Dirty Love 720p Music Video
Video
English
77.0 MB
4.1
/images/5/7/ke24ha-dirty-love-720p-music-video-.jpg
J Cole - Work Out 720p Music Video download J Cole - Work Out 720p Music Video
Video
English
79.9 MB
4.2
/images/5/9/j-cole-work-out-720p-music-video-.jpg
Little Mix - Little Me 720p Music Video download Little Mix - Little Me 720p Music Video
Video
English
37.9 MB
4.1
/images/5/5/little-mix-little-me-720p-music-video-.jpg