Files 42316
» » Eminem - Rap God 1080p
Language: English
Size: 146.1 MB
Votes: 700
Downloaded: 46
Category: Video
Format: MP3, FLAC
4.9

File list

  • Eminem - Rap God [Explicit] 1080p [Sbyky].MP4 (146.1 MB)

Video, Eminem rap god, 1080PHD. Eminem - Rap God (Explicit)1080P.

Video, Eminem rap god, 1080PHD.

Thanks Eminem - Rap God Hidden content cannot be quoted.

Thanks Eminem - Rap God. multimediafm, Aug 25, 2016. Hidden content cannot be quoted.

Album The Marshall Mathers LP2. Rap God Lyrics. Look, I was gonna go easy on you not to hurt your feelings. But I'm only going to get this one chance. If that means what I think it means, we're in trouble, big trouble; and if he is as bananas as you say, I'm not taking any chances. I'm beginnin' to feel like a Rap God, Rap God All my people from the front to the back nod, back nod Now, who thinks their arms are long enough to slap box, slap box? They said I rap like a robot, so call me Rap-bot.

Rap God. Untouchable (1). Nowhere Fast (feat. Phenomenal (OST Левша). Till I Coll AP S E (The Eminem Show - 2002). Till I Collapse (feat. Guts Over Fear (ft. Sia). Till I Collapse (ft. Nate Dogg).

Новый клип американского рэппера Eminem на песню Rap God из альбома The Marshall Mathers LP 2 (2013). Новый клип американского рэппера Eminem на песню Rap God из альбома The Marshall Mathers LP 2 (2013).

Eminem - Lucky You ft. Joyner Lucas. Eminem - Good Guy (Behind The Scenes) ft.


General
Complete name : Eminem - Rap God [Explicit] 1080p [Sbyky].MP4
Format : MPEG-4
Format profile : Base Media
Codec ID : isom
File size : 146 MiB
Duration : 6mn 9s
Overall bit rate mode : Variable
Overall bit rate : 3 320 Kbps
Encoded date : UTC 2013-11-27 04:13:05
Tagged date : UTC 2013-11-27 04:13:05
Video
ID : 1
Format : AVC
Format/Info : Advanced Video Codec
Format profile : [email protected]
Format settings, CABAC : Yes
Format settings, ReFrames : 3 frames
Codec ID : avc1
Codec ID/Info : Advanced Video Coding
Duration : 6mn 9s
Duration_LastFrame : -41ms
Bit rate : 3 064 Kbps
Width : 1 920 pixels
Height : 1 080 pixels
Display aspect ratio : 16:9
Frame rate mode : Constant
Frame rate : 23.976 fps
Color space : YUV
Chroma subsampling : 4:2:0
Bit depth : 8 bits
Scan type : Progressive
Bits/(Pixel*Frame) : 0.062
Stream size : 135 MiB (92%)
Encoded date : UTC 2013-11-27 04:13:05
Tagged date : UTC 2013-11-27 04:13:05
Audio
ID : 2
Format : AAC
Format/Info : Advanced Audio Codec
Format profile : LC
Codec ID : 40
Duration : 6mn 9s
Bit rate mode : Variable
Bit rate : 254 Kbps
Channel(s) : 2 channels
Channel positions : Front: L R
Sampling rate : 44.1 KHz
Compression mode : Lossy
Delay relative to video : 42ms
Stream size : 11.2 MiB (8%)
Encoded date : UTC 2013-11-27 04:11:50
Tagged date : UTC 2013-11-27 04:11:50
Shared By Sbyky

Related music:
Little Mix - Little Me 1080p Music Video download Little Mix - Little Me 1080p Music Video
Video
English
74.7 MB
4.9
/images/5/1/little-mix-little-me-1080p-music-video-.jpg
A$AP Rocky - Goldie 1080p download A$AP Rocky - Goldie 1080p
Video
English
76.4 MB
4.3
/images/5/1/a24ap-rocky-goldie-1080p-.jpg
Britney Spears - Ooh La La 1080p Music Video download Britney Spears - Ooh La La 1080p Music Video
Video
English
119.6 MB
4.7
/images/5/9/britney-spears-ooh-la-la-1080p-music-video-.jpg
Pitbull - I Know You Want Me 1080p Music Video download Pitbull - I Know You Want Me 1080p Music Video
Video
English
96.3 MB
4.3
/images/5/9/pitbull-i-know-you-want-me-1080p-music-video-.jpg
Eminem Ft Rihanna - The Monster 1080p download Eminem Ft Rihanna - The Monster 1080p
Video
English
108.0 MB
4.7
/images/5/3/eminem-ft-rihanna-the-monster-1080p-.jpg
Passenger - Let Her Go 1080p Music Video download Passenger - Let Her Go 1080p Music Video
Video
English
86.7 MB
4.2
/images/5/0/passenger-let-her-go-1080p-music-video-.jpg
Emily Kinney - Kids 1080p Music Video download Emily Kinney - Kids 1080p Music Video
Video
English
77.7 MB
4.5
/images/5/7/emily-kinney-kids-1080p-music-video-.jpg
The Killers - Shot At The Night 1080p Music Video download The Killers - Shot At The Night 1080p Music Video
Video
English
66.0 MB
4.4
/images/5/2/the-killers-shot-at-the-night-1080p-music-video-.jpg