Files 42316
» » Nachhatar Gill - Peerhan Teriyan HD 720p Branded Heeran -
Language: Hindi
Size: 90.1 MB
Votes: 795
Downloaded: 34
Category: Video
Format: MP3, FLAC
4.7

File list

  • Nachhatar Gill - Peerhan Teriyan_HD_720p Branded Heeran -.MP4 (90.1 MB)
  • stpicz.com Free Image Hosting Site.txt (0.6 KB)
  • Torrent Download From SilverTorrent.org.txt (0.1 KB)

Song: PEERHAN TERIYAN. Singer: NACHHATAR GILL. Music Director: GURMEET SINGH. Lyrics: MANJIT PANDORI. Album: BRANDED HEERAN. Music Label: T-SERIES.

Song: PEERHAN TERIYAN.

Video ID : 1 Format : AVC Format/Info : Advanced Video Codec Format profile : [email protected]

Nachhatar Gill Peerhan Teriyan HD 1080p Branded Heeran Latest Punjabi Video Song. PEERHAN TERIYAN NACHHATAR GILL FULL VIDEO SONG Branded Heeran Latest Punjabi Song YouTube mpe. By niloveiqbal6. PEERHAN TERIYAN BY NACHHATAR GILL BRANDED HEERAN Latest Punjabi Video Song. By T-Series Apna Punjab. Peerhan Teriyan Nachhatar Gill Full Video Album Branded Heeran. Peerhan Teriyan Nu Gal La Leya Nachhatar Gill Brand New Punjabi Sad Songs 2013 YouTube.

Nachhatar gill - branded heeran. Vishal Sharma . 47 views6 years ago. 4:35. Nachhatar Gill - Peerhan Teriyan HD 1080p Branded Heeran - Latest Punjabi Video Song. King Shah 13. 45 views6 years ago. 5:18. T-Series Apna Punjab 2. 10 views6 years ago. 4:46. PEERHAN TERIYAN NACHHATAR GILL FULL VIDEO SONG Branded Heeran - Latest Punjabi Song. T-Series Apna Punjab . 62. 504 views6 years ago. 3:21. Nachhatar gill latest song flute branded heeran. T-Series Apna Punjab 98. 74 views6 years ago. 4:28. TAREYAN DI LOYE NACHHATAR GILL (Official) VIDEO SONG BRANDED HEERAN.

info randed-Heeran- Shrivastava - IBRG Music. to Nachhatar Gill - Peerhan Teriyan HD 720p Branded Heeran -{Shrivastava} {IBRG} Music. com Nachhatar Gill: Peerhan Teriyan HD 720p Branded Heeran -{Shriva Music. am Nachhatar Gill - Peerhan Teriyan HD 720p Branded Heeran -(Shrivastava) (IBRG) Music. ch an-Teriyan HD Music.

Peerhan Teriyan Heeran. Peerhan Teriyan Heeran- Punjabi Song 2012. Branded Heeran - Nachhatar Gill. Peerhan Teriyan - Nachhatar Gill Full Video - Album Branded Heeran.






Code:

General
Complete name : Nachhatar Gill - Peerhan Teriyan_HD_720p Branded Heeran -.MP4
Format : MPEG-4
Format profile : Base Media / Version 2
Codec ID : mp42
File size : 90.1 MiB
Duration : 4mn 34s
Overall bit rate : 2 753 Kbps
Encoded date : UTC 2012-12-25 21:32:33
Tagged date : UTC 2012-12-25 21:32:33
gsst : 0
gstd : 274551
gssd : B73FE6104HH1358272608386855
gshh : r1---sn-gxap5ojx-qxae.c.youtube.com
Video
ID : 1
Format : AVC
Format/Info : Advanced Video Codec
Format profile : [email protected]
Format settings, CABAC : Yes
Format settings, ReFrames : 1 frame
Codec ID : avc1
Codec ID/Info : Advanced Video Coding
Duration : 4mn 34s
Bit rate mode : Variable
Bit rate : 2 559 Kbps
Maximum bit rate : 6 095 Kbps
Width : 1 280 pixels
Height : 720 pixels
Display aspect ratio : 16:9
Frame rate mode : Constant
Frame rate : 25.000 fps
Color space : YUV
Chroma subsampling : 4:2:0
Bit depth : 8 bits
Scan type : Progressive
Bits/(Pixel*Frame) : 0.111
Stream size : 83.7 MiB (93%)
Tagged date : UTC 2012-12-25 21:32:34
Audio
ID : 2
Format : AAC
Format/Info : Advanced Audio Codec
Format profile : LC
Codec ID : 40
Duration : 4mn 34s
Bit rate mode : Variable
Bit rate : 192 Kbps
Maximum bit rate : 202 Kbps
Channel(s) : 2 channels
Channel positions : Front: L R
Sampling rate : 44.1 KHz
Compression mode : Lossy
Stream size : 6.28 MiB (7%)
Title : IsoMedia File Produced by Google, 5-11-2011
Encoded date : UTC 2012-12-25 21:32:33
Tagged date : UTC 2012-12-25 21:32:34

•––––––––•(-•*Navi Shrivastava*•-)•––––––––•
•––––––––•(-•*Indian Boys Release Group*•-)•––––––––•
•––––––––•(-•{Hindi Sad Shyri}•-)•––––––––•

Related music:
SlaughterHouse - Goodbye 720p kely258 download SlaughterHouse - Goodbye 720p kely258
Video
English
50.9 MB
4.3
/images/5/6/slaughterhouse-goodbye-720p-kely258.jpg
Becky G ft Will i am - Problem 720p The Monster Remix download Becky G ft Will i am - Problem 720p The Monster Remix
Video
English
64.2 MB
4.5
/images/5/4/becky-g-ft-will-i-am-problem-720p-the-monster-remix.jpg
Rihanna - Where Have You Been 1080p Music Video download Rihanna - Where Have You Been 1080p Music Video
Video
English
140.9 MB
4.3
/images/5/3/rihanna-where-have-you-been-1080p-music-video-.jpg
Flo Rida - Whistle 1080p Music Video download Flo Rida - Whistle 1080p Music Video
Video
English
145.4 MB
4.3
/images/5/7/flo-rida-whistle-1080p-music-video-.jpg
Rihanna - Where Have You Been 720p Music Video download Rihanna - Where Have You Been 720p Music Video
Video
English
71.7 MB
4.8
/images/5/3/rihanna-where-have-you-been-720p-music-video-.jpg
Taylor Swift - I Knew You Were Trouble 720p Music Video download Taylor Swift - I Knew You Were Trouble 720p Music Video
Video
English
52.1 MB
4.3
/images/5/1/taylor-swift-i-knew-you-were-trouble-720p-music-video-.jpg
P!nk - Try 720p Music Video download P!nk - Try 720p Music Video
Video
English
54.4 MB
4.9
/images/5/7/p21nk-try-720p-music-video-.jpg
Ik Tu Hi Tu Hi - Mausam 720P HD Video Song 2011 download Ik Tu Hi Tu Hi - Mausam 720P HD Video Song 2011
Video
Hindi
86.3 MB
4.4
/images/5/7/ik-tu-hi-tu-hi-mausam-720p-hd-video-song-2011.jpg
Nicki Minaj - Va Va Voom 720p download Nicki Minaj - Va Va Voom 720p
Video
English
50.5 MB
4.9
/images/5/8/nicki-minaj-va-va-voom-720p-.jpg