Files 42316
» » Little Mix - Little Me 1080p Music Video
Language: English
Size: 74.7 MB
Votes: 859
Downloaded: 25
Category: Video
Format: MP3, FLAC
4.9

File list

  • Little Mix - Little Me [Music Video] 1080p [Sbyky].mp4 (74.7 MB)

Little Mix Performing on GM. The Greatest Showman - This Is Me - Продолжительность: 3:47 20th Century Fox Indonesia Recommended for you. 3:47. Sergey Lazarev - Scream.

Little Mix Performing on GM. 2014 г. Little Mix Performing on GMA. Категория. Автовоспроизведение Если функция включена, то следующий ролик начнет воспроизводиться автоматически. Eurovision-2019 Final 2019. 18 - Продолжительность: 3:59 Сергей Лазарев Recommended for you. 3:59.

обновлён 8 дней назад. Показать все 35 альбомов.

Video (Music videos). Little Mix - BBC Radio 1's Big Weekend 2017 Little Mix - Salute 1080p. Little Mix - BBC Radio 1's Big Weekend 2017. Little Mix - Salute 1080p. 0. 1. Video (Music videos). Little Mix - Salute 720p.


General
Complete name : Little Mix - Little Me [Music Video] 1080p [Sbyky].mp4
Format : MPEG-4
Format profile : Base Media
Codec ID : isom
File size : 74.7 MiB
Duration : 4mn 20s
Overall bit rate mode : Variable
Overall bit rate : 2 410 Kbps
Encoded date : UTC 2013-12-21 19:43:44
Tagged date : UTC 2013-12-21 19:43:44
Video
ID : 1
Format : AVC
Format/Info : Advanced Video Codec
Format profile : [email protected]
Format settings, CABAC : Yes
Format settings, ReFrames : 3 frames
Codec ID : avc1
Codec ID/Info : Advanced Video Coding
Duration : 4mn 19s
Bit rate : 2 283 Kbps
Width : 1 920 pixels
Height : 1 080 pixels
Display aspect ratio : 16:9
Frame rate mode : Constant
Frame rate : 25.000 fps
Color space : YUV
Chroma subsampling : 4:2:0
Bit depth : 8 bits
Scan type : Progressive
Bits/(Pixel*Frame) : 0.044
Stream size : 70.7 MiB (95%)
Encoded date : UTC 2013-12-21 19:43:44
Tagged date : UTC 2013-12-21 19:43:44
Audio
ID : 2
Format : AAC
Format/Info : Advanced Audio Codec
Format profile : LC
Codec ID : 40
Duration : 4mn 20s
Bit rate mode : Variable
Bit rate : 126 Kbps
Channel(s) : 2 channels
Channel positions : Front: L R
Sampling rate : 44.1 KHz
Compression mode : Lossy
Delay relative to video : 40ms
Stream size : 3.89 MiB (5%)
Encoded date : UTC 2013-12-21 19:42:53
Tagged date : UTC 2013-12-21 19:42:53
Shared By Sbyky

Related music:
John Legend - All Of Me 1080p Music Video download John Legend - All Of Me 1080p Music Video
Video
English
156.2 MB
4.2
/images/5/3/john-legend-all-of-me-1080p-music-video-.jpg
Britney Spears - Ooh La La 1080p Music Video download Britney Spears - Ooh La La 1080p Music Video
Video
English
119.6 MB
4.7
/images/5/9/britney-spears-ooh-la-la-1080p-music-video-.jpg
Pitbull - I Know You Want Me 1080p Music Video download Pitbull - I Know You Want Me 1080p Music Video
Video
English
96.3 MB
4.3
/images/5/9/pitbull-i-know-you-want-me-1080p-music-video-.jpg
Fall Out Boy - The Phoenix 1080p Music Video download Fall Out Boy - The Phoenix 1080p Music Video
Video
English
77.6 MB
4.9
/images/5/8/fall-out-boy-the-phoenix-1080p-music-video-.jpg
Wiz Khalifa - Paperbond 1080p Music Video download Wiz Khalifa - Paperbond 1080p Music Video
Video
English
91.9 MB
4.2
/images/5/6/wiz-khalifa-paperbond-1080p-music-video-.jpg
INNA - Wow 1080p Music Video download INNA - Wow 1080p Music Video
Video
English
152.3 MB
4.0
/images/noimage.jpg
Avicii - Hey Brother 1080p Music Video download Avicii - Hey Brother 1080p Music Video
Video
English
73.7 MB
4.9
/images/5/4/avicii-hey-brother-1080p-music-video-.jpg
Demi Lovato - Let It Go 1080p Music Video download Demi Lovato - Let It Go 1080p Music Video
Video
English
87.5 MB
4.0
/images/5/9/demi-lovato-let-it-go-1080p-music-video-.jpg
Passenger - Let Her Go 1080p Music Video download Passenger - Let Her Go 1080p Music Video
Video
English
86.7 MB
4.2
/images/5/0/passenger-let-her-go-1080p-music-video-.jpg