Files 42316
» » A$AP Rocky - Goldie 1080p
Language: English
Size: 76.4 MB
Votes: 520
Downloaded: 46
Category: Video
Format: MP3, FLAC
4.3

File list

  • A$AP Rocky - Goldie [Explicit] 1080p [Sbyky].MP4 (76.4 MB)

Aha, aha I said it must be 'cause a nigga got dough Extraordinary swag and a mouth full of gold Hoes at my shows they be strippin' off they clothes And them college girls write a nigga name on they toes Niggas talk shit 'til they get lockjaw Chrome to ya dome 'til ya get glockjaw Party like a cowboy or a.

Слушать песню A AP Rocky – Goldie онлайн или скачать mp3 в хорошем качестве (320 кбит/с) на телефон (Android, Iphone) вы можете на сайте . A AP Rocky Goldie Mack feat Waka Flocka Flame) (Snippe. :00. ASAP Rocky GOLDIE Instrumental.

Слушать песню A AP Rocky – Goldie онлайн или скачать mp3 в хорошем качестве (320 кбит/с) на телефон (Android, Iphone) вы можете на сайте MusicId. ru, а также другие популярные треки и рингтоны. A AP Rocky Goldie Mack feat Waka Flocka Snippet. Waka Flocka Goldie Mack ft ASAP Rocky. A AP Rocky Goldie NR. 4:43. A AP ROCKY GOLDIE (Crisp s It s a Trap Remix)LASK. :12. A AP Rocky Goldie Cool Music. 088 A ap Rocky Goldie. A AP Rocky Goldie (Crisp s Remix).

The Edge Of Africa Vol, 8. сборник.

Asap Rocky Live - Goldie at O2 Academy Brixton.


General
Complete name : A$AP Rocky - Goldie [Explicit] 1080p [Sbyky].MP4
Format : MPEG-4
Format profile : Base Media
Codec ID : isom
File size : 76.4 MiB
Duration : 3mn 15s
Overall bit rate mode : Variable
Overall bit rate : 3 285 Kbps
Encoded date : UTC 2013-12-03 05:06:01
Tagged date : UTC 2013-12-03 05:06:01
Video
ID : 1
Format : AVC
Format/Info : Advanced Video Codec
Format profile : [email protected]
Format settings, CABAC : Yes
Format settings, ReFrames : 3 frames
Codec ID : avc1
Codec ID/Info : Advanced Video Coding
Duration : 3mn 15s
Bit rate : 3 157 Kbps
Width : 1 920 pixels
Height : 1 080 pixels
Display aspect ratio : 16:9
Frame rate mode : Constant
Frame rate : 23.976 fps
Color space : YUV
Chroma subsampling : 4:2:0
Bit depth : 8 bits
Scan type : Progressive
Bits/(Pixel*Frame) : 0.064
Stream size : 73.4 MiB (96%)
Encoded date : UTC 2013-12-03 05:06:01
Tagged date : UTC 2013-12-03 05:06:01
Audio
ID : 2
Format : AAC
Format/Info : Advanced Audio Codec
Format profile : LC
Codec ID : 40
Duration : 3mn 15s
Bit rate mode : Variable
Bit rate : 126 Kbps
Channel(s) : 2 channels
Channel positions : Front: L R
Sampling rate : 44.1 KHz
Compression mode : Lossy
Stream size : 2.92 MiB (4%)
Encoded date : UTC 2013-12-03 05:04:29
Tagged date : UTC 2013-12-03 05:04:29
Shared By Sbyky

Related music:
John Legend - All Of Me 1080p Music Video download John Legend - All Of Me 1080p Music Video
Video
English
156.2 MB
4.2
/images/5/3/john-legend-all-of-me-1080p-music-video-.jpg
Eminem - Rap God 1080p download Eminem - Rap God 1080p
Video
English
146.1 MB
4.9
/images/5/3/eminem-rap-god-1080p-.jpg
Little Mix - Little Me 1080p Music Video download Little Mix - Little Me 1080p Music Video
Video
English
74.7 MB
4.9
/images/5/1/little-mix-little-me-1080p-music-video-.jpg
Pitbull - I Know You Want Me 1080p Music Video download Pitbull - I Know You Want Me 1080p Music Video
Video
English
96.3 MB
4.3
/images/5/9/pitbull-i-know-you-want-me-1080p-music-video-.jpg
Fall Out Boy - The Phoenix 1080p Music Video download Fall Out Boy - The Phoenix 1080p Music Video
Video
English
77.6 MB
4.9
/images/5/8/fall-out-boy-the-phoenix-1080p-music-video-.jpg
Avicii - Hey Brother 1080p Music Video download Avicii - Hey Brother 1080p Music Video
Video
English
73.7 MB
4.9
/images/5/4/avicii-hey-brother-1080p-music-video-.jpg
Demi Lovato - Let It Go 1080p Music Video download Demi Lovato - Let It Go 1080p Music Video
Video
English
87.5 MB
4.0
/images/5/9/demi-lovato-let-it-go-1080p-music-video-.jpg
A$AP Rocky - Goldie 720p download A$AP Rocky - Goldie 720p
Video
English
39.1 MB
4.8
/images/5/9/a24ap-rocky-goldie-720p-.jpg
Passenger - Let Her Go 1080p Music Video download Passenger - Let Her Go 1080p Music Video
Video
English
86.7 MB
4.2
/images/5/0/passenger-let-her-go-1080p-music-video-.jpg