Files 42316
» » Jason Derulo - Marry Me 720p Music Video
Language: English
Size: 48.2 MB
Votes: 150
Downloaded: 49
Category: Video
Format: MP3, FLAC
4.6

File list

  • Jason Derulo - Marry Me [Music Video] 720p [Sbyky].mp4 (48.2 MB)

to is the largest czech cloud storage.

to is the largest czech cloud storage. Please, upgrade your browser, OS or both. Prosím, aktualizujte svůj prohlížeč, operační systém nebo obojí.

Vídeo musical · 2013 · 3:47 min. Gratis con la suscripción de Apple Music. Obtén Apple Music para iOS, Android, Mac y Windows. Marry Me. Jason Derulo. Pop. 23 de sep. de 2013.

by FanoTube 2 years ago. 03:50.

The album features smash hit Want To Want Me and brand new single "Get Ugly"! See below for the official tracklisting: 1. Want To Want Me 2. Cheyenne 3. Get Ugly 4. Pull Up 5. Love Like That (Feat. K Michelle) 6. Painkiller (Feat Meghan Trainor) 7. Broke (Feat. by FanoTube 2 years ago. Jason Derulo - "Get Ugly" (Official Music Video). 05:17.


General
Complete name : Jason Derulo - Marry Me [Music Video] 720p [Sbyky].mp4
Format : MPEG-4
Format profile : Base Media / Version 2
Codec ID : mp42
File size : 48.2 MiB
Duration : 3mn 45s
Overall bit rate mode : Variable
Overall bit rate : 1 794 Kbps
Encoded date : UTC 2013-09-23 02:23:00
Tagged date : UTC 2013-09-23 02:23:00
Video
ID : 1
Format : AVC
Format/Info : Advanced Video Codec
Format profile : [email protected]
Format settings, CABAC : Yes
Format settings, ReFrames : 1 frame
Codec ID : avc1
Codec ID/Info : Advanced Video Coding
Duration : 3mn 45s
Bit rate : 1 599 Kbps
Maximum bit rate : 2 839 Kbps
Width : 1 280 pixels
Height : 720 pixels
Display aspect ratio : 16:9
Frame rate mode : Constant
Frame rate : 23.976 fps
Color space : YUV
Chroma subsampling : 4:2:0
Bit depth : 8 bits
Scan type : Progressive
Bits/(Pixel*Frame) : 0.072
Stream size : 43.0 MiB (89%)
Tagged date : UTC 2013-09-23 02:23:02
Audio
ID : 2
Format : AAC
Format/Info : Advanced Audio Codec
Format profile : LC
Codec ID : 40
Duration : 3mn 45s
Bit rate mode : Variable
Bit rate : 192 Kbps
Maximum bit rate : 203 Kbps
Channel(s) : 2 channels
Channel positions : Front: L R
Sampling rate : 44.1 KHz
Compression mode : Lossy
Stream size : 5.16 MiB (11%)
Title : IsoMedia File Produced by Google, 5-11-2011
Encoded date : UTC 2013-09-23 02:23:01
Tagged date : UTC 2013-09-23 02:23:02
Shared By Sbyky

Related music:
Emily Kinney - Kids 720p Music Video download Emily Kinney - Kids 720p Music Video
Video
English
60.5 MB
4.2
/images/5/3/emily-kinney-kids-720p-music-video-.jpg
Jason Derulo - The Other Side 1080p Music Video download Jason Derulo - The Other Side 1080p Music Video
Video
English
128.0 MB
4.9
/images/5/3/jason-derulo-the-other-side-1080p-music-video-.jpg
Cher Lloyd Ft T I - I Wish 720p Music Video download Cher Lloyd Ft T I - I Wish 720p Music Video
Video
English
60.6 MB
4.3
/images/5/1/cher-lloyd-ft-t-i-i-wish-720p-music-video-.jpg
John Legend - All Of Me 720p Music Video download John Legend - All Of Me 720p Music Video
Video
English
62.7 MB
4.1
/images/5/4/john-legend-all-of-me-720p-music-video-.jpg
Stromae - Papaoutai 720p Music Video download Stromae - Papaoutai 720p Music Video
Video
French
41.8 MB
4.6
/images/5/0/stromae-papaoutai-720p-music-video-.jpg
Ke$ha - Dirty Love 720p Music Video download Ke$ha - Dirty Love 720p Music Video
Video
English
77.0 MB
4.1
/images/5/7/ke24ha-dirty-love-720p-music-video-.jpg
J Cole - Work Out 720p Music Video download J Cole - Work Out 720p Music Video
Video
English
79.9 MB
4.2
/images/5/9/j-cole-work-out-720p-music-video-.jpg
Jason Derulo - Marry Me 1080p Music Video download Jason Derulo - Marry Me 1080p Music Video
Video
English
101.0 MB
4.0
/images/5/9/jason-derulo-marry-me-1080p-music-video-.jpg
Little Mix - Little Me 720p Music Video download Little Mix - Little Me 720p Music Video
Video
English
37.9 MB
4.1
/images/5/5/little-mix-little-me-720p-music-video-.jpg