Files 42316
» » Pitbull - I Know You Want Me 1080p Music Video
Language: English
Size: 96.3 MB
Votes: 115
Downloaded: 37
Category: Video
Format: MP3, FLAC
4.3

File list

  • Pitbull - I Know You Want Me [Music Video] 1080p [Sbyky].MP4 (96.3 MB)

I Know You Want Me (Calle Ocho).

This is a Ture HD Official Video Of Pitbull - I Know You Want Me (1080p HD. Britney Spears (Official Music Video) - Продолжительность: 4:52 will i am Recommended for you. 4:52.

This is a Ture HD Official Video Of Pitbull - I Know You Want Me (1080p HD). Категория. I Know You Want Me (Calle Ocho). Haddaway - What Is Love - Продолжительность: 4:56 Km Music Recommended for you. 4:56. Bomfunk MC's - Freestyler (Video Original Version) - Продолжительность: 4:53 BomfunkMCsVEVO Recommended for you.

I Know You Want Me (Calle Ocho).

Forums Video Mania Music Videos ON DEMAND & WEB RIP . Pitbull & JBalvin, Camila Cabello - Hey Ma (VEVO 1080p) BETOHACKER.

Forums Video Mania Music Videos ON DEMAND & WEB RIP VEVO . WEB-RiP Pitbull - I Know You Want Me (Calle Ocho) - 1080P. Video ID : 1 Format : AVC Format/Info : Advanced Video Codec Format profile : [email protected] 0 Format settings, CABAC : Yes Format settings, ReFrames : 4 frames Codec ID : avc1 Codec ID/Info : Advanced Video Coding Duration : 4mn 5s Bit rate : 4 420 Kbps Width : 1 920 pixels Height : 1 080 pixels Display aspect ratio : 16:9 Frame rate mode : Constant Frame. alberto piper naro, Nov 9, 2017, in forum: VEVO.

Our goal is to help musicians like you to learn to play the music they love. We can only maintain and improve Chordify if paying members keep supporting us. Become a paying member too!

Our goal is to help musicians like you to learn to play the music they love. Chordify Premium DemoTry now.

HD) скачать видео бесплатно. I Know You Want Me Calle Ocho - Pitbull. Загружено: 2009/06/13.

Please, upgrade your browser, OS or both. Pitbull - I Know You Want Me (Calle Ocho) OFFICIAL VIDEO (Ultra Music). Prosím, aktualizujte svůj prohlížeč, operační systém nebo obojí. 0. Resolution 1920x1080.


General
Complete name : Pitbull - I Know You Want Me [Music Video] 1080p [Sbyky].MP4
Format : MPEG-4
Format profile : Base Media
Codec ID : isom
File size : 96.3 MiB
Duration : 4mn 5s
Overall bit rate mode : Variable
Overall bit rate : 3 287 Kbps
Encoded date : UTC 2013-09-21 17:30:59
Tagged date : UTC 2013-09-21 17:30:59
Video
ID : 1
Format : AVC
Format/Info : Advanced Video Codec
Format profile : [email protected]
Format settings, CABAC : Yes
Format settings, ReFrames : 2 frames
Codec ID : avc1
Codec ID/Info : Advanced Video Coding
Duration : 4mn 5s
Bit rate : 3 031 Kbps
Width : 1 920 pixels
Height : 1 080 pixels
Display aspect ratio : 16:9
Frame rate mode : Constant
Frame rate : 29.970 fps
Color space : YUV
Chroma subsampling : 4:2:0
Bit depth : 8 bits
Scan type : Progressive
Bits/(Pixel*Frame) : 0.049
Stream size : 88.8 MiB (92%)
Encoded date : UTC 2013-09-21 17:30:59
Tagged date : UTC 2013-09-21 17:30:59
Audio
ID : 2
Format : AAC
Format/Info : Advanced Audio Codec
Format profile : LC
Codec ID : 40
Duration : 4mn 5s
Bit rate mode : Variable
Bit rate : 254 Kbps
Channel(s) : 2 channels
Channel positions : Front: L R
Sampling rate : 44.1 KHz
Compression mode : Lossy
Delay relative to video : 33ms
Stream size : 7.43 MiB (8%)
Encoded date : UTC 2013-09-21 17:27:25
Tagged date : UTC 2013-09-21 17:27:25
Shared By Sbyky

Related music:
Pitbull Ft Ke$ha - Timber 1080p Music Video download Pitbull Ft Ke$ha - Timber 1080p Music Video
Video
English
85.8 MB
4.4
/images/5/7/pitbull-ft-ke24ha-timber-1080p-music-video-.jpg
John Legend - All Of Me 1080p Music Video download John Legend - All Of Me 1080p Music Video
Video
English
156.2 MB
4.2
/images/5/3/john-legend-all-of-me-1080p-music-video-.jpg
Little Mix - Little Me 1080p Music Video download Little Mix - Little Me 1080p Music Video
Video
English
74.7 MB
4.9
/images/5/1/little-mix-little-me-1080p-music-video-.jpg
Fall Out Boy - The Phoenix 1080p Music Video download Fall Out Boy - The Phoenix 1080p Music Video
Video
English
77.6 MB
4.9
/images/5/8/fall-out-boy-the-phoenix-1080p-music-video-.jpg
INNA - Wow 1080p Music Video download INNA - Wow 1080p Music Video
Video
English
152.3 MB
4.0
/images/noimage.jpg
Avicii - Hey Brother 1080p Music Video download Avicii - Hey Brother 1080p Music Video
Video
English
73.7 MB
4.9
/images/5/4/avicii-hey-brother-1080p-music-video-.jpg
Demi Lovato - Let It Go 1080p Music Video download Demi Lovato - Let It Go 1080p Music Video
Video
English
87.5 MB
4.0
/images/5/9/demi-lovato-let-it-go-1080p-music-video-.jpg
Passenger - Let Her Go 1080p Music Video download Passenger - Let Her Go 1080p Music Video
Video
English
86.7 MB
4.2
/images/5/0/passenger-let-her-go-1080p-music-video-.jpg