Files 42316
» » Christina Perri - Human 1080p Music Video
Language: English
Size: 64.6 MB
Votes: 324
Downloaded: 35
Category: Video
Format: MP3, FLAC
4.6

File list

  • Christina Perri - Human [Music Video] 1080p [Sbyky].MP4 (64.6 MB)

Lyric video of Christina Perri's song "Human" Video dedicated to Eloise.

Lyric video of Christina Perri's song "Human" Video dedicated to Eloise.

David Guetta & Sia - Flames (Lyric Video). Christina Perri - Human Lyrics/letra English/Español sub. Maca Rodríguez.

Christina Perri - A Thousand Years Big Morning Buzz Live i HDTV DD. MPEG2-TrollHD.

Forums Video Mania HD Live Performances . HDTV Christina Perri - Human (1080i). Discussion in 'HD Live Performances' started by Brian, Nov 19, 2013. Brian Well-Known Member Capper V. I. P. Joined: Nov 1, 2013. Christina Perri - A Thousand Years Big Morning Buzz Live i HDTV DD. tknobi, Oct 18, 2017, in forum: HD Live Performances.

Christina Perri - Human. Christina Perri quotes. Music has been my everything since day one. It's been my shoulder to cry on, my rock and my best friend.

Produced by Martin Johnson. But I'm only human And I bleed when I fall down I'm only human And I crash and I break down Your words in my head, knives in my heart You build me up and then I fall apart Cause I'm only human

Produced by Martin Johnson. But I'm only human And I bleed when I fall down I'm only human And I crash and I break down Your words in my head, knives in my heart You build me up and then I fall apart Cause I'm only human. I'm only human I'm only human Just a little human. I can take so much 'Til I've had enough.


General
Complete name : Christina Perri - Human [Music Video] 1080p [Sbyky].MP4
Format : MPEG-4
Format profile : Base Media
Codec ID : isom
File size : 64.6 MiB
Duration : 4mn 22s
Overall bit rate mode : Variable
Overall bit rate : 2 066 Kbps
Encoded date : UTC 2014-01-13 05:04:04
Tagged date : UTC 2014-01-13 05:04:04
Video
ID : 1
Format : AVC
Format/Info : Advanced Video Codec
Format profile : [email protected]
Format settings, CABAC : Yes
Format settings, ReFrames : 3 frames
Codec ID : avc1
Codec ID/Info : Advanced Video Coding
Duration : 4mn 22s
Bit rate : 1 938 Kbps
Width : 1 920 pixels
Height : 1 080 pixels
Display aspect ratio : 16:9
Frame rate mode : Constant
Frame rate : 24.000 fps
Color space : YUV
Chroma subsampling : 4:2:0
Bit depth : 8 bits
Scan type : Progressive
Bits/(Pixel*Frame) : 0.039
Stream size : 60.5 MiB (94%)
Encoded date : UTC 2014-01-13 05:04:04
Tagged date : UTC 2014-01-13 05:04:04
Audio
ID : 2
Format : AAC
Format/Info : Advanced Audio Codec
Format profile : LC
Codec ID : 40
Duration : 4mn 22s
Bit rate mode : Variable
Bit rate : 126 Kbps
Channel(s) : 2 channels
Channel positions : Front: L R
Sampling rate : 44.1 KHz
Compression mode : Lossy
Stream size : 3.92 MiB (6%)
Encoded date : UTC 2014-01-13 05:03:48
Tagged date : UTC 2014-01-13 05:03:48
Shared By Sbyky

Related music:
Neon Jungle - Welcome To The Jungle 1080p Music Video download Neon Jungle - Welcome To The Jungle 1080p Music Video
Video
English
97.4 MB
4.5
/images/5/2/neon-jungle-welcome-to-the-jungle-1080p-music-video-.jpg
Sevyn Streeter Ft Kid Ink - nEXt 1080p Music Video download Sevyn Streeter Ft Kid Ink - nEXt 1080p Music Video
Video
English
93.7 MB
4.4
/images/5/4/sevyn-streeter-ft-kid-ink-next-1080p-music-video-.jpg
One Direction - You & I 1080p Music Video download One Direction - You & I 1080p Music Video
Video
English
111.1 MB
4.5
/images/5/5/one-direction-you-26-i-1080p-music-video-.jpg
Katy Perry - Birthday 1080p Music Video download Katy Perry - Birthday 1080p Music Video
Video
English
214.8 MB
4.2
/images/5/2/katy-perry-birthday-1080p-music-video-.jpg
Karmin - I Want It All 1080p Music Video download Karmin - I Want It All 1080p Music Video
Video
English
85.2 MB
4.6
/images/5/4/karmin-i-want-it-all-1080p-music-video-.jpg
Coldplay - Magic 1080p Music Video download Coldplay - Magic 1080p Music Video
Video
English
153.0 MB
4.9
/images/5/5/coldplay-magic-1080p-music-video-.jpg
Shakira - Empire 1080p Music Video download Shakira - Empire 1080p Music Video
Video
English
94.2 MB
4.1
/images/5/0/shakira-empire-1080p-music-video-.jpg
Alizée - Blonde 1080p Music Video download Alizée - Blonde 1080p Music Video
Video
French
86.3 MB
4.3
/images/5/6/alizc3a9e-blonde-1080p-music-video-.jpg
50 Cent Ft Joe - Big Rich Town 1080p Music Video download 50 Cent Ft Joe - Big Rich Town 1080p Music Video
Video
English
72.7 MB
4.3
/images/5/7/50-cent-ft-joe-big-rich-town-1080p-music-video-.jpg