Files 42316
» » Shakira Ft Pitbull - Rabiosa 720p English Version
Language: English
Size: 45.3 MB
Votes: 888
Downloaded: 38
Category: Video
Format: MP3, FLAC
4.2

File list

  • Shakira Ft. Pitbull - Rabiosa [English Version] 720p [Sbyky].MP4 (45.3 MB)

Loca (English Version). Rabiosa (оригинал Shakira feat. Неистовая (перевод Dan UndeaD из Northrend). If you don't get enough I'll make it double.

Loca (English Version). Loca (Spanglish Version). Если тебе мало, я удвою порцию, I got my boy now in big, big trouble. Мой мальчик в большой, большой беде, You know I want you.

Rabiosa (English Version) Lyrics. Woo-ooh! Rabiosa If you don't get enough, I'll make it double I got my boy now in big, big trouble You know I want you, atracao' ahí, ratata You've got a lot of sex appeal Don't play around because I'm for real (Yeah) You see that road isn't meant for me You know I want you amarrao' aquí. Rabiosa If you don't get enough I'll make it double I'm trying to have fun, I love you But you want me, atracao' ratata You got a lot of sex appeal Now baby, I'm for real You see that road isn't meant for me You know I want you amarrao' aquí.

Pitbull HD (Official Video). Pitbull HD (Official Video).

Слушать песню Shakira – Rabiosa feat Pitbull онлайн или скачать mp3 в хорошем качестве 320 kbps на. .Pitbull – Rabiosa (English Version). com – Shakira Pitbull - Rabiosa (remix).

Слушать песню Shakira – Rabiosa feat Pitbull онлайн или скачать mp3 в хорошем качестве 320 kbps на телефон (андроид, айфон) вы можете на сайте YoSound. Unknown artist – Rabiosa Shakira ft Pitbull New Song 360p . :49.

please added the Shakira - Rabiosa (English Version) f. Pitbull (TIDAL - 1080p).

please added the Shakira - Rabiosa (English Version) ft.

Waka Waka (This Time for Africa) [feat.

(C) 2011 Sony Music Entertainment (Holland) . See All. Waka Waka (This Time for Africa) . 2010. Hips Don't Lie (feat.

Download and listen free to Shakira feat. We have song's lyrics, which you can find out below. Download MP3 or another format to your phone or computer.

Pitbull - Rabiosa, Pitbull feat. Shakira - Get It Started, Pitbull feat. Amazing Karaoke Premium –Loca (Karaoke Version). Shakira - Get It Started и другие популярные треки и рингтоны.


General
Complete name : Shakira Ft. Pitbull - Rabiosa [English Version] 720p [Sbyky].MP4
Format : MPEG-4
Format profile : Base Media
Codec ID : isom
File size : 45.3 MiB
Duration : 2mn 50s
Overall bit rate mode : Variable
Overall bit rate : 2 229 Kbps
Encoded date : UTC 2013-09-10 19:38:59
Tagged date : UTC 2013-09-10 19:38:59
Video
ID : 1
Format : AVC
Format/Info : Advanced Video Codec
Format profile : [email protected]
Format settings, CABAC : Yes
Format settings, ReFrames : 3 frames
Codec ID : avc1
Codec ID/Info : Advanced Video Coding
Duration : 2mn 50s
Bit rate : 1 975 Kbps
Width : 1 280 pixels
Height : 720 pixels
Display aspect ratio : 16:9
Frame rate mode : Constant
Frame rate : 25.000 fps
Color space : YUV
Chroma subsampling : 4:2:0
Bit depth : 8 bits
Scan type : Progressive
Bits/(Pixel*Frame) : 0.086
Stream size : 40.1 MiB (88%)
Encoded date : UTC 2013-09-10 19:38:59
Tagged date : UTC 2013-09-10 19:38:59
Audio
ID : 2
Format : AAC
Format/Info : Advanced Audio Codec
Format profile : LC
Codec ID : 40
Duration : 2mn 50s
Bit rate mode : Variable
Bit rate : 254 Kbps
Channel(s) : 2 channels
Channel positions : Front: L R
Sampling rate : 44.1 KHz
Compression mode : Lossy
Delay relative to video : 40ms
Stream size : 5.15 MiB (11%)
Encoded date : UTC 2013-09-10 19:44:44
Tagged date : UTC 2013-09-10 19:44:44
Shared By Sbyky

Related music:
Pitbull Ft Ke$ha - Timber 1080p Music Video download Pitbull Ft Ke$ha - Timber 1080p Music Video
Video
English
85.8 MB
4.4
/images/5/7/pitbull-ft-ke24ha-timber-1080p-music-video-.jpg
The Janoskians - Best Friends 720p download The Janoskians - Best Friends 720p
Video
English
57.2 MB
4.5
/images/5/1/the-janoskians-best-friends-720p-.jpg
Britney Spears - Ooh La La 720p Music Video download Britney Spears - Ooh La La 720p Music Video
Video
English
66.7 MB
4.6
/images/5/2/britney-spears-ooh-la-la-720p-music-video-.jpg
Fall Out Boy - The Phoenix 720p Music Video download Fall Out Boy - The Phoenix 720p Music Video
Video
English
40.1 MB
4.1
/images/5/4/fall-out-boy-the-phoenix-720p-music-video-.jpg
Pitbull - I Know You Want Me 1080p Music Video download Pitbull - I Know You Want Me 1080p Music Video
Video
English
96.3 MB
4.3
/images/5/9/pitbull-i-know-you-want-me-1080p-music-video-.jpg
Beyoncé - XO 720p Music Video download Beyoncé - XO 720p Music Video
Video
English
58.3 MB
4.2
/images/5/7/beyoncc3a9-xo-720p-music-video-.jpg
Pitbull Ft Ke$ha - Timber 720p Music Video download Pitbull Ft Ke$ha - Timber 720p Music Video
Video
English
46.9 MB
4.3
/images/5/5/pitbull-ft-ke24ha-timber-720p-music-video-.jpg
Jessie J - Thunder 720p Music Video download Jessie J - Thunder 720p Music Video
Video
English
33.5 MB
4.4
/images/5/2/jessie-j-thunder-720p-music-video-.jpg
A$AP Rocky - Goldie 720p download A$AP Rocky - Goldie 720p
Video
English
39.1 MB
4.8
/images/5/9/a24ap-rocky-goldie-720p-.jpg
Little Mix - Little Me 720p Music Video download Little Mix - Little Me 720p Music Video
Video
English
37.9 MB
4.1
/images/5/5/little-mix-little-me-720p-music-video-.jpg