Files 42316
» » Marc Anthony - Vivir Mi Vida 720p Music Video
Language: Spanish
Size: 91.9 MB
Votes: 124
Downloaded: 30
Category: Video
Format: MP3, FLAC
4.5

File list

  • Marc Anthony - Vivir Mi Vida [Music Video] 720p [Sbyky].MP4 (91.9 MB)

Marc Anthony tour at the American Airlines Arena in Miami, FL on October 3,2015. These videos were taken from the floor, Section: Floor 3. The opening act and introduction was comedian Joey Vega.

Marc Anthony tour at the American Airlines Arena in Miami, FL on October 3,2015. Special musical guest was Gente De Zona. Surprise musical guest was Romeo Santos. The whole concert was incredible and I recommend everyone go see Marc Anthony live. The whole arena was shaking, great vocals, great lighting. This was Marc Anthony's introduction and walk in followed by "Valio La Pena"

Music video · 2013 · 5:26 min Free with Apple Music subscription. More By Marc Anthony. See All. Rain Over Me (feat.

Music video · 2013 · 5:26 min Free with Apple Music subscription. Valió la Pena (Salsa Version).

Открывайте новую музыку каждый день. Vivir Mi VidaOriginally Performed By Marc Anthony; Instrumental Version. Лента с персональными рекомендациями и музыкальными новинками, радио, подборки на любой вкус, удобное управление своей коллекцией. Миллионы композиций бесплатно и в хорошем качестве.

Vídeo oficial de Marc Anthony de su tema 'Vivir Mi Vida'. Voy a vivir el momento para entender el destino voy a escuchar el silencio para encontrar el camino. it/MarcAthis site?IQid MarcAVMV. Y para que llorar, pa' qué si duele una pena, se olvida y para qué sufrir, pa' qué si duele una pena, se olvida la la le. Voy a reír, voy a bailar vivir mi vida la la la la voy a reír, voy a gozar vivir mi vida la la la la.

Marc Anthony covered the Khaled song C'est la vie as a salsa hit with Vivir Mi Vida ( Live My Life ). This version was produced by Sergio George. The song is living your life to the fullest and doing what makes you smile, laugh, and dance

Marc Anthony covered the Khaled song C'est la vie as a salsa hit with Vivir Mi Vida ( Live My Life ). The song is living your life to the fullest and doing what makes you smile, laugh, and dance. The song holds the record for the second-longest run inside the top-five in the Billboard Latin Songs, with 51 weeks. Vivir Mi Vida" Track Info. Written By RedOne, Sam Debbie, Björn Djupström & 4 more. Mastering Studio Sterling Sound Studio.

Best Musics : 1. Khalif, Casyana - Бро. 144 ნახვა. 2. Havana & Ioana Ignat - Vivere (Official Video). 12. Mi Favorita - Lunay ft. Wisin y Yandel EPICO. 13. Lunay Ft. Wisin Y Yandel - Mi Favorita (Letra Lyrics). 3. Lidia Buble - Lacatul si femeia (Official Video).


General
Complete name : Marc Anthony - Vivir Mi Vida [Music Video] 720p [Sbyky].MP4
Format : MPEG-4
Format profile : Base Media
Codec ID : isom
File size : 91.9 MiB
Duration : 5mn 26s
Overall bit rate mode : Variable
Overall bit rate : 2 361 Kbps
Encoded date : UTC 2013-11-12 07:50:35
Tagged date : UTC 2013-11-12 07:50:35
Video
ID : 1
Format : AVC
Format/Info : Advanced Video Codec
Format profile : [email protected]
Format settings, CABAC : Yes
Format settings, ReFrames : 3 frames
Codec ID : avc1
Codec ID/Info : Advanced Video Coding
Duration : 5mn 26s
Bit rate : 2 105 Kbps
Width : 1 280 pixels
Height : 720 pixels
Display aspect ratio : 16:9
Frame rate mode : Constant
Frame rate : 23.976 fps
Color space : YUV
Chroma subsampling : 4:2:0
Bit depth : 8 bits
Scan type : Progressive
Bits/(Pixel*Frame) : 0.095
Stream size : 81.9 MiB (89%)
Encoded date : UTC 2013-11-12 07:50:35
Tagged date : UTC 2013-11-12 07:50:35
Audio
ID : 2
Format : AAC
Format/Info : Advanced Audio Codec
Format profile : LC
Codec ID : 40
Duration : 5mn 26s
Bit rate mode : Variable
Bit rate : 254 Kbps
Channel(s) : 2 channels
Channel positions : Front: L R
Sampling rate : 44.1 KHz
Compression mode : Lossy
Delay relative to video : 42ms
Stream size : 9.87 MiB (11%)
Encoded date : UTC 2013-11-12 06:54:32
Tagged date : UTC 2013-11-12 06:54:32
Shared By Sbyky

Related music:
Britney Spears - Ooh La La 720p Music Video download Britney Spears - Ooh La La 720p Music Video
Video
English
66.7 MB
4.6
/images/5/2/britney-spears-ooh-la-la-720p-music-video-.jpg
Fall Out Boy - The Phoenix 720p Music Video download Fall Out Boy - The Phoenix 720p Music Video
Video
English
40.1 MB
4.1
/images/5/4/fall-out-boy-the-phoenix-720p-music-video-.jpg
Hot Chelle Rae - Hung Up 720p Music Video download Hot Chelle Rae - Hung Up 720p Music Video
Video
English
46.2 MB
4.5
/images/5/3/hot-chelle-rae-hung-up-720p-music-video-.jpg
John Newman - Love Me Again 720p Music Video download John Newman - Love Me Again 720p Music Video
Video
English
33.4 MB
4.9
/images/5/7/john-newman-love-me-again-720p-music-video-.jpg
One Direction - Story Of My Life 720p Music Video download One Direction - Story Of My Life 720p Music Video
Video
English
37.7 MB
4.4
/images/5/2/one-direction-story-of-my-life-720p-music-video-.jpg
Beyoncé - XO 720p Music Video download Beyoncé - XO 720p Music Video
Video
English
58.3 MB
4.2
/images/5/7/beyoncc3a9-xo-720p-music-video-.jpg
Pitbull Ft Ke$ha - Timber 720p Music Video download Pitbull Ft Ke$ha - Timber 720p Music Video
Video
English
46.9 MB
4.3
/images/5/5/pitbull-ft-ke24ha-timber-720p-music-video-.jpg
Jessie J - Thunder 720p Music Video download Jessie J - Thunder 720p Music Video
Video
English
33.5 MB
4.4
/images/5/2/jessie-j-thunder-720p-music-video-.jpg
Little Mix - Little Me 720p Music Video download Little Mix - Little Me 720p Music Video
Video
English
37.9 MB
4.1
/images/5/5/little-mix-little-me-720p-music-video-.jpg
Justin Timberlake - TKO 720p Music Video download Justin Timberlake - TKO 720p Music Video
Video
English
78.9 MB
4.3
/images/5/1/justin-timberlake-tko-720p-music-video-.jpg