Files 42316
» » Inna - Crazy Sexy Wild x264 VX 1080p
Language: English
Size: 37.5 MB
Votes: 045
Downloaded: 16
Category: Video
Format: MP3, FLAC
4.2

File list

  • Inna - Crazy Sexy Wild (1080p) x264 [VX] [P2PDL].mp4 (34.7 MB)
  • Inna - Crazy Sexy Wild.m4a (2.7 MB)
  • Cover.jpg (47.4 KB)
  • Info.nfo (13.0 KB)
  • Inna - Crazy Sexy Wild (1080p) x264 [VX] [P2PDL].srt (4.2 KB)

ემდეგი ვიდეო ჩაირთვება 10 წამში. Lexy Panterra - Dame Dame 1080p. 3. Detta - Let's Play (Original Mix) by Yeiskomp Records 1080p.

ემდეგი ვიდეო ჩაირთვება 10 წამში. ემდეგი ვიდეო გაუქმება. Music Channel HD World PlayList 1 : 1. Dizkodude & Pat Krimson feat. Luke August - Living For The Weekend 1080p. 4. Dillon Francis - Say Less (ft. G-Eazy) 1080p. 5. CMC$ & Conor Maynard - Understand Me 1080p. 6. Cosmic Gate & Emma Hewitt - Tonight 1080p.

Details for this torrent. Inna - Crazy Sexy Wild {M4A+MP4} (1080p) x264. Music video by Inna performing Crazy, Sexy, Wild. A girl with a plan and seems like she found the perfect scapegoat for its successful execution. This is how things will unravel

Details for this torrent. Type: Video Music videos. This is how things will unravel. 1080p Full HD MP4 Video +. 96 kbps/VBR M4A Audio.

INNA Crazy Sexy Wild Music Brother Bootleg NIE zarabiam na tych utworach. INNA Crazy Sexy Wild Official Video. Official music video by INNA performing the super single "Crazy Sexy Wild". 2012 Concerts: bookingofficial. INNA Crazy Sexy Wild 1080p. INNA Crazy Sexy Wild Official Music Video FHD+ 2019 New version.

Crazy Sexy Wild Lyrics You and I will dance until we die Crazy sexy wild, we just wanna let it out Touch my body with the music baby, you know I want it. You and I will dance until w. .

Crazy Sexy Wild Lyrics. You and I will dance until we die Crazy sexy wild, we just wanna let it out Touch my body with the music baby, you know I want it.

Inna - Crazy Sexy Wild. Rock the Roof music video by INNA performing the single "Crazy Sexy Wild" live in Bucharest. Album: Party Never Ends, 2014. Concerts: bookingofficial. cc87e6d6e5b32/Inna+-+Crazy+Sexy+Wild+%5B2012%5D+%7BM4A%2BMP4%7D+%281080p%29+x264+%5BVX%5D+%5BP2PDL%5D/. php?page torrent-details&id.

Crazy, sexy, wild, we just wanna let it out. Сумасшедшие, сексуальные, дикие, мы просто хотим дать чувствам выход. Touch my body, with the music, baby, you know I want it. Касайся моего тела вместе с музыкой, малыш, ты знаешь, что я этого хочу. You and I, will dance untill we die. Ты и я будем танцевать до упаду. Crazy, sexy, wild, we just wanna let it out.

Crazy Sexy Wild" is a song recorded by Romanian singer Inna from her third studio album, Party Never Ends (2013). The track was written by Henri Lanz, Kimberly Cole, Will Rappaport and Inna, while production was handled by Sebastian Barac, Radu Bolfea and Marcel Botezan.

Current track: Inna - Crazy Sexy WildInna - Crazy Sexy Wild. Drop your files here.


Music video by Inna performing Crazy, Sexy, Wild.
A girl with a plan and seems like she found the perfect scapegoat for its successful execution. This is how things will unravel.
1080p Full HD MP4 Video
+
96 kbps/VBR M4A Audio
Cover:

Sing Along!
English subtitles included.

Code:

General
Complete name : Inna - Crazy Sexy Wild (1080p) x264 [VX] [P2PDL].mp4
Format : MPEG-4
Format profile : Base Media / Version 2
Codec ID : mp42
File size : 34.7 MiB
Duration : 3mn 21s
Overall bit rate mode : Variable
Overall bit rate : 1 446 Kbps

Code:

Video
ID : 1
Format : AVC
Format/Info : Advanced Video Codec
Codec ID/Info : Advanced Video Coding
Duration : 3mn 21s
Bit rate mode : Variable
Bit rate : 1 312 Kbps
Width : 1 920 pixels
Height : 1 080 pixels
Display aspect ratio : 16:9
Frame rate mode : Variable
Frame rate : 23.976 fps
Stream size : 31.5 MiB (91%)

Code:

Audio
ID : 2
Format/Info : Advanced Audio Codec
Format profile : LC
Codec ID : 40
Duration : 3mn 21s
Bit rate mode : Variable
Bit rate : 128 Kbps
Channel(s) : 2 channels
Channel positions : Front: L R
Sampling rate : 48.0 KHz
Stream size : 3.07 MiB (9%)

Screens:


Thumbs:


Notes:
* Best played on VLC Media Player.
* Install shark007 codecs in case of any kind of problem in playback (For non-VLC Media Player users).
* Alternatively, install Core AVC codecs, the fastest decoder that there is coupled with Community Center Codec Pack and play on Windows Media Player Classic.
* Read NFO
* Help in seeding this torrent as much as you can.
Greets to: VYTO, srkfan, MgB, staff members at ExtraTorrent, TPB, H33T, KAT, , PublicHD, Ahashare,
SilverTorrent, TorrentMafia, P2PDL, and all others
Encoder Notes:
Looking For Early Access To Anything You Can Provide DVDScr, R5, DVDRips, BluRay, Direct Audio, Early Music Releases, Seedboxes, Links, Dedicated Servers, Advance / Promo CDs/DVDs. If You Got anything to
offer contact me at "[email protected]"
Enjoy!

Related music:
Sevyn Streeter Ft Kid Ink - nEXt 1080p Music Video download Sevyn Streeter Ft Kid Ink - nEXt 1080p Music Video
Video
English
93.7 MB
4.4
/images/5/4/sevyn-streeter-ft-kid-ink-next-1080p-music-video-.jpg
Little Mix - Little Me 1080p Music Video download Little Mix - Little Me 1080p Music Video
Video
English
74.7 MB
4.9
/images/5/1/little-mix-little-me-1080p-music-video-.jpg
INNA - Wow 1080p Music Video download INNA - Wow 1080p Music Video
Video
English
152.3 MB
4.0
/images/noimage.jpg
LMFAO - Sexy and I Know It 1080p Music Video download LMFAO - Sexy and I Know It 1080p Music Video
Video
English
147.4 MB
4.9
/images/5/6/lmfao-sexy-and-i-know-it-1080p-music-video-.jpg
Hunter Hayes - I Want Crazy 1080p Music Video download Hunter Hayes - I Want Crazy 1080p Music Video
Video
English
81.0 MB
4.4
/images/5/8/hunter-hayes-i-want-crazy-1080p-music-video-.jpg
Shakira - Empire 1080p Music Video download Shakira - Empire 1080p Music Video
Video
English
94.2 MB
4.1
/images/5/0/shakira-empire-1080p-music-video-.jpg