Files 42316
» » Snoop Lion Ft Drake & Cori B - No Guns Allowed 1080p Music Video
Language: English
Size: 135.6 MB
Votes: 812
Downloaded: 33
Category: Video
Format: MP3, FLAC
4.4

File list

  • Snoop Lion Ft. Drake & Cori B - No Guns Allowed [Music Video] 1080p [Sbyky].mp4 (135.6 MB)

Drake & Cori B. Лицензиар.

Drake & Cori B.

Money makes a man and that's a crime If we all were rich, we'd spend more time With our daughters and sons, they're losing their minds We all feel hurt, here's mine, hear me now Cause, no guns are allowed, in here tonight We're.

Money makes a man and that's a crime If we all were rich, we'd spend more time With our daughters and sons, they're losing their minds We all feel hurt, here's mine, hear me now Cause, no guns are allowed, in here tonight We're gonna have a. free-for-all, no fights I wanna get lost in the crowd, in here tonight I need to hear my thoughts, turn the music up loud Let the music play, me don't want no more gunplay When the bodies hit the ground, there's nothing left to say, ay, ay M. .

Cause no guns are allowed in here tonight We're gonna have a free-for-all, no fights I wanna get lost in the crowd in here tonight I need to hear my thoughts, turn the music up loud.

it/SLSpot?IQid SLNGA. As featured On Reincarnated. Cause, no guns are allowed in here tonight We're gonna have a free for all, no fights I wanna get lost in the crowd in here tonight I need to hear my thoughts turn the music up loud.


General
Complete name : Snoop Lion Ft. Drake & Cori B - No Guns Allowed [Music Video] 1080p [Sbyky].mp4
Format : MPEG-4
Format profile : Base Media / Version 2
Codec ID : mp42
File size : 136 MiB
Duration : 3mn 52s
Overall bit rate mode : Variable
Overall bit rate : 4 882 Kbps
Encoded date : UTC 2013-04-08 05:37:19
Tagged date : UTC 2013-04-08 05:37:19
Video
ID : 1
Format : AVC
Format/Info : Advanced Video Codec
Format profile : [email protected]
Format settings, CABAC : Yes
Format settings, ReFrames : 1 frame
Codec ID : avc1
Codec ID/Info : Advanced Video Coding
Duration : 3mn 52s
Bit rate : 4 687 Kbps
Maximum bit rate : 16.8 Mbps
Width : 1 920 pixels
Height : 1 080 pixels
Display aspect ratio : 16:9
Frame rate mode : Constant
Frame rate : 23.976 fps
Color space : YUV
Chroma subsampling : 4:2:0
Bit depth : 8 bits
Scan type : Progressive
Bits/(Pixel*Frame) : 0.094
Stream size : 130 MiB (96%)
Tagged date : UTC 2013-04-08 05:37:40
Audio
ID : 2
Format : AAC
Format/Info : Advanced Audio Codec
Format profile : LC
Codec ID : 40
Duration : 3mn 52s
Bit rate mode : Variable
Bit rate : 192 Kbps
Maximum bit rate : 201 Kbps
Channel(s) : 2 channels
Channel positions : Front: L R
Sampling rate : 44.1 KHz
Compression mode : Lossy
Stream size : 5.33 MiB (4%)
Title : IsoMedia File Produced by Google, 5-11-2011
Encoded date : UTC 2013-04-08 05:37:34
Tagged date : UTC 2013-04-08 05:37:40
Shared By Sbyky

Related music:
Snoop Lion Ft Drake & Cori B - No Guns Allowed 720p Music Video download Snoop Lion Ft Drake & Cori B - No Guns Allowed 720p Music Video
Video
English
69.3 MB
4.1
/images/5/5/snoop-lion-ft-drake-26-cori-b-no-guns-allowed-720p-music-video-.jpg
PSY - Gentleman 1080p Music Video download PSY - Gentleman 1080p Music Video
Video
English
145.3 MB
4.7
/images/5/2/psy-gentleman-1080p-music-video-.jpg
J Cole - Work Out 1080p Music Video download J Cole - Work Out 1080p Music Video
Video
English
153.3 MB
4.1
/images/5/3/j-cole-work-out-1080p-music-video-.jpg
Drake - Started From The Bottom 1080p download Drake - Started From The Bottom 1080p
Video
English
221.0 MB
4.4
/images/5/1/drake-started-from-the-bottom-1080p-.jpg
Little Mix - Little Me 1080p Music Video download Little Mix - Little Me 1080p Music Video
Video
English
74.7 MB
4.9
/images/5/1/little-mix-little-me-1080p-music-video-.jpg
Snoop Lion Ft Miley Cyrus - Ashtrays And Heartbreaks 1080p Music Video download Snoop Lion Ft Miley Cyrus - Ashtrays And Heartbreaks 1080p Music Video
Video
English
133.3 MB
4.2
/images/5/5/snoop-lion-ft-miley-cyrus-ashtrays-and-heartbreaks-1080p-music-video-.jpg
Snoop Lion Ft Miley Cyrus - Ashtrays And Heartbreaks 720p Music Video download Snoop Lion Ft Miley Cyrus - Ashtrays And Heartbreaks 720p Music Video
Video
English
63.3 MB
4.0
/images/5/2/snoop-lion-ft-miley-cyrus-ashtrays-and-heartbreaks-720p-music-video-.jpg
INNA - Wow 1080p Music Video download INNA - Wow 1080p Music Video
Video
English
152.3 MB
4.0
/images/noimage.jpg
Wiz Khalifa Ft Akon - Let It Go 1080p Music Video download Wiz Khalifa Ft Akon - Let It Go 1080p Music Video
Video
English
117.5 MB
4.2
/images/5/6/wiz-khalifa-ft-akon-let-it-go-1080p-music-video-.jpg
Drake Ft Rihanna - Take Care 1080p Music Video download Drake Ft Rihanna - Take Care 1080p Music Video
Video
English
52.6 MB
4.5
/images/5/6/drake-ft-rihanna-take-care-1080p-music-video-.jpg