Files 42316
» » Ludacris Ft Wiz Khalifa, Jeremih & Cashmere Cat - Party Girls 1080p
Language: English
Size: 118.0 MB
Votes: 092
Downloaded: 34
Category: Video
Format: MP3, FLAC
4.5

File list

  • Ludacris Ft. Wiz Khalifa, Jeremih & Cashmere Cat - Party Girls [Explicit] 1080p [Sbyky].mp4 (118.0 MB)

Wiz Khalifa, Jeremih & Cashmere Cat - Party Girls (Afrojack Remix). Wiz Khalifa, Jeremih & Cashmere Cat. 03:19.

Wiz Khalifa, Jeremih & Cashmere Cat - Party Girls (Afrojack Remix). Party Girls (Afrojack Remix). Download MP3. Ludacris feat. MP3 320Kbps.

Wiz Khalifa, Jeremih & Cashmere Cat – Party Girls Nanpa NOIR, KR CHN &. :24. KDC Ludacris ft. Wiz Khalifa, Jeremih & Cashmere Cat – Party Girls. Wiz Khalifa, Jeremih & Cashmere Cat – Party Girls - Soundvor. Ludacris ft Jeremih x Wiz Khalifa & Afrojack vs. Tujamo – Party Girls (Rewind DJ s Trapleg). Ludacris – Party Girls (Afrojack Remix) ft.

Album: Party Girls (feat. Wiz Khalifa, Jeremih & Cashmere Cat) - Single, 2014. Music video by Ludacris performing Party Girls (Audio) (Explicit).

Wiz Khalifa, Jeremih & Cashmere Cat – Party Girls Жанр: Hip-Hop Год: 2014 Качество: HDRip 1080p Видео: AVC 1920x1080 3698 Kbps Аудио: AAC 126 . Video, Music Videos → Ludacris ft. не сотвори себе кумира, к черту тупака, ву тэнг или че там тебе нравится в единственном числе! хип-хоп большой и прекрасный! Player 2 May 2014 11:52.


General
Complete name : Ludacris Ft. Wiz Khalifa, Jeremih & Cashmere Cat - Party Girls [Explicit] 1080p [Sbyky].mp4
Format : MPEG-4
Format profile : Base Media
Codec ID : isom
File size : 118 MiB
Duration : 4mn 18s
Overall bit rate mode : Variable
Overall bit rate : 3 828 Kbps
Encoded date : UTC 2014-04-28 13:54:51
Tagged date : UTC 2014-04-28 13:54:51
Video
ID : 1
Format : AVC
Format/Info : Advanced Video Codec
Format profile : [email protected]
Format settings, CABAC : Yes
Format settings, ReFrames : 2 frames
Codec ID : avc1
Codec ID/Info : Advanced Video Coding
Duration : 4mn 18s
Bit rate : 3 698 Kbps
Width : 1 920 pixels
Height : 1 080 pixels
Display aspect ratio : 16:9
Frame rate mode : Variable
Frame rate : 23.976 fps
Minimum frame rate : 23.974 fps
Maximum frame rate : 24.122 fps
Color space : YUV
Chroma subsampling : 4:2:0
Bit depth : 8 bits
Scan type : Progressive
Bits/(Pixel*Frame) : 0.074
Stream size : 114 MiB (97%)
Encoded date : UTC 2014-04-28 13:54:51
Tagged date : UTC 2014-04-28 13:54:51
Audio
ID : 2
Format : AAC
Format/Info : Advanced Audio Codec
Format profile : LC
Codec ID : 40
Duration : 4mn 18s
Bit rate mode : Variable
Bit rate : 126 Kbps
Channel(s) : 2 channels
Channel positions : Front: L R
Sampling rate : 44.1 KHz
Compression mode : Lossy
Stream size : 3.87 MiB (3%)
Encoded date : UTC 2014-04-28 13:55:37
Tagged date : UTC 2014-04-28 13:55:37
Shared By Sbyky

Related music:
Juicy J Ft Chris Brown & Wiz Khalifa - Talkin' Bout 1080p Music Video download Juicy J Ft Chris Brown & Wiz Khalifa - Talkin' Bout 1080p Music Video
Video
English
121.3 MB
4.2
/images/5/9/juicy-j-ft-chris-brown-26-wiz-khalifa-talkin27-bout-1080p-music-video-.jpg
Sevyn Streeter Ft Kid Ink - nEXt 1080p Music Video download Sevyn Streeter Ft Kid Ink - nEXt 1080p Music Video
Video
English
93.7 MB
4.4
/images/5/4/sevyn-streeter-ft-kid-ink-next-1080p-music-video-.jpg
Rick Ross Ft Lil Wayne - Thug Cry 1080p download Rick Ross Ft Lil Wayne - Thug Cry 1080p
Video
English
74.3 MB
4.2
/images/5/6/rick-ross-ft-lil-wayne-thug-cry-1080p-.jpg
Katy Perry - Birthday 1080p Music Video download Katy Perry - Birthday 1080p Music Video
Video
English
214.8 MB
4.2
/images/5/2/katy-perry-birthday-1080p-music-video-.jpg
Shakira - Empire 1080p Music Video download Shakira - Empire 1080p Music Video
Video
English
94.2 MB
4.1
/images/5/0/shakira-empire-1080p-music-video-.jpg
Ludacris Ft Wiz Khalifa, Jeremih & Cashmere Cat - Party Girls 720p download Ludacris Ft Wiz Khalifa, Jeremih & Cashmere Cat - Party Girls 720p
Video
English
62.3 MB
4.9
/images/5/8/ludacris-ft-wiz-khalifa2c-jeremih-26-cashmere-cat-party-girls-720p-.jpg
50 Cent Ft Joe - Big Rich Town 1080p Music Video download 50 Cent Ft Joe - Big Rich Town 1080p Music Video
Video
English
72.7 MB
4.3
/images/5/7/50-cent-ft-joe-big-rich-town-1080p-music-video-.jpg
Beyoncé - Pretty Hurts 1080p Music Video download Beyoncé - Pretty Hurts 1080p Music Video
Video
English
178.5 MB
4.2
/images/5/4/beyoncc3a9-pretty-hurts-1080p-music-video-.jpg