Files 42316
» » INNA Ft Yandel - In Your Eyes 1080p Music Video
Language: English
Size: 95.5 MB
Votes: 341
Downloaded: 39
Category: Video
Format: MP3, FLAC
4.0

File list

  • INNA Ft. Yandel - In Your Eyes [Music Video] 1080p [Sbyky].MP4 (95.5 MB)

Steve Mac, Ina Wroldsen. Top Hits 2019 - Best English Music Playlist 2020 - Rihanna, Ed Sheeran, Shawn Mendes, Maroon 5 - Продолжительность: 1:20:20 Magic Boxx Recommended for you.

Steve Mac, Ina Wroldsen. INNA - Diggy Down (feat. Marian Hill) Official Music Video - Продолжительность: 3:27 INNA Recommended for you. 3:27. Dj Pafos - Powerful Style - Продолжительность: 4:12 BabRoV Recommended for you.

Music Channel HD World PlayList 1 : 1. Dizkodude & Pat Krimson feat. Luke August - Living For The Weekend 1080p. Steklo) unofficial video by NEWBEST 1080p. 29. David Guetta ft Justin Bieber - 2U 1080p. 30. David Guetta - Titanium ft. Lexy Panterra - Dame Dame 1080p. Sia 1080p.

Full HD free download INNA feat. Yandel - In Your Eyes 1080p 2013 Скачать видео. Клип Burak Yeter f. elaney Jane – Reckless Music Video. Hi-Rez – Pornhub (Unsensored) Music Video. 2013 HD Music Videos Inna Modern Pop Romania.

Forums Video Mania Music Videos MASTERS & BLU-RAY . Inna - In Your Eyes feat. Hossein Enr7que, Apr 7, 2017, in forum: MASTER & MASTER RIP.

Forums Video Mania Music Videos Masters & BLU-RAY Master & Master RIP . INNA Feat. Yandel - In Your Eyes (oRes) Video ID : 2 Format : ProRes Format version : Version 0 Format profile : High Codec ID : apch Duration : 3mn 16s Bit rate mode : Variable Bit rate : 188 Mbps Width : 1 920 pixels Height : 1 080 pixels Display aspect ratio : 16:9 Frame rate mode : Constant Frame rate : 2. 00 fps Color space : YUV Chroma subsampling : 4:2:2 Scan type : Progressive Bits/.

More in this category: Maître Gims feat. The Shin Sekaï - Ça marche Ruzanna Andreasyan - Hey Na Na 2013. More in this category: Maître Gims feat.


General
Complete name : INNA Ft. Yandel - In Your Eyes [Music Video] 1080p [Sbyky].MP4
Format : MPEG-4
Format profile : Base Media / Version 2
Codec ID : mp42
File size : 95.5 MiB
Duration : 3mn 15s
Overall bit rate mode : Variable
Overall bit rate : 4 097 Kbps
Encoded date : UTC 2013-10-15 07:05:17
Tagged date : UTC 2013-10-15 07:05:17
Video
ID : 1
Format : AVC
Format/Info : Advanced Video Codec
Format profile : [email protected]
Format settings, CABAC : Yes
Format settings, ReFrames : 2 frames
Codec ID : avc1
Codec ID/Info : Advanced Video Coding
Duration : 3mn 15s
Bit rate : 3 845 Kbps
Width : 1 920 pixels
Height : 1 080 pixels
Display aspect ratio : 16:9
Frame rate mode : Constant
Frame rate : 25.000 fps
Color space : YUV
Chroma subsampling : 4:2:0
Bit depth : 8 bits
Scan type : Progressive
Bits/(Pixel*Frame) : 0.074
Stream size : 89.6 MiB (94%)
Encoded date : UTC 2013-10-15 07:05:17
Tagged date : UTC 2013-10-15 07:05:17
Audio
ID : 2
Format : AAC
Format/Info : Advanced Audio Codec
Format profile : LC
Codec ID : 40
Duration : 3mn 15s
Bit rate mode : Variable
Bit rate : 254 Kbps
Channel(s) : 2 channels
Channel positions : Front: L R
Sampling rate : 44.1 KHz
Compression mode : Lossy
Stream size : 5.91 MiB (6%)
Encoded date : UTC 2013-10-15 07:04:50
Tagged date : UTC 2013-10-15 07:04:50
Shared By Sbyky

Related music:
John Legend - All Of Me 1080p Music Video download John Legend - All Of Me 1080p Music Video
Video
English
156.2 MB
4.2
/images/5/3/john-legend-all-of-me-1080p-music-video-.jpg
Little Mix - Little Me 1080p Music Video download Little Mix - Little Me 1080p Music Video
Video
English
74.7 MB
4.9
/images/5/1/little-mix-little-me-1080p-music-video-.jpg
Pitbull - I Know You Want Me 1080p Music Video download Pitbull - I Know You Want Me 1080p Music Video
Video
English
96.3 MB
4.3
/images/5/9/pitbull-i-know-you-want-me-1080p-music-video-.jpg
Fall Out Boy - The Phoenix 1080p Music Video download Fall Out Boy - The Phoenix 1080p Music Video
Video
English
77.6 MB
4.9
/images/5/8/fall-out-boy-the-phoenix-1080p-music-video-.jpg
INNA - Wow 1080p Music Video download INNA - Wow 1080p Music Video
Video
English
152.3 MB
4.0
/images/noimage.jpg
Avicii - Hey Brother 1080p Music Video download Avicii - Hey Brother 1080p Music Video
Video
English
73.7 MB
4.9
/images/5/4/avicii-hey-brother-1080p-music-video-.jpg
Passenger - Let Her Go 1080p Music Video download Passenger - Let Her Go 1080p Music Video
Video
English
86.7 MB
4.2
/images/5/0/passenger-let-her-go-1080p-music-video-.jpg