Files 42316
» » Tum Hi Ho - Aashiqui 2 Full Song With Lyrics 2013 720p HD x264 AAC - SceneDL PimpRG
Language: Hindi
Size: 43.8 MB
Votes: 621
Downloaded: 32
Category: Video
Format: MP3, FLAC
4.0

File list

  • Tum Hi Ho - Aashiqui 2 Full Song With Lyrics 2013 720p HD x264 AAC - SceneDL.MP4 (43.8 MB)

Опубликовано: 9 сент.

Опубликовано: 9 сент.

General Complete name : Tum Hi Ho - Aashiqui 2 Full Song With Lyrics 2013 720p HD x264 AAC - SceneDL.

Song: Tum Hi Ho Singer: Arijit Singh Movie: Aashiqui 2. Category.

If the content above is not authorized, please contact us via contactp2bt. Remember to include the full url in your complaint. All resources are automatically indexed from the DHT network. Instead of torrent files, we store meta information only for indexing.

Tum Hi Ho - the Official Song Video from the movie Aashiqui 2 with English Subtitles Everything about this song from . This are true lyrics of full song of tum hi ho from aashiqui 2. I,avishkar govardhane,last time uploaded this video.

Tum Hi Ho - the Official Song Video from the movie Aashiqui 2 with English Subtitles Everything about this song from the lyrics to the video is beyond words. Meri Aashiqui Ab Tum Hi Ho Female Full Video Song Aashiqui 2 Aditya Roy Kapur, Shraddha Kapoor. by T-Series on 2013-05-28 In Video. Tum Hi Ho Aashiqui 2 Full Song 1080p HD (2013).

Tum hi ho ENGLISH version (you're the one) by Tahsin ahmed OFFICIAL VIDEO. Tum Hi Ho - Full Video Song - Aashiqui 2 - Aditya Roy Kapoor, Shraddha Kapoor Tum Hi Ho-Aashiqui 2 -2013. Aashiqui 2 - Tum Hi Ho. 4:43. Tum Hi Ho - Full Video Song - Aashiqui 2 - Aditya Roy Kapoor, Shraddha Kapoor. Tum Hi Ho-Aashiqui 2 -2013.

Torrent added: 2013-05-13 06:16:10. Alternatives:Tum Hi Ho - Aashiqui 2 Full Song With Lyrics 2013 720p HD x264 AAC - SceneDL MP4 Torrents.

Tum Hi Ho Aashiqui 2 Full Song With Lyrics Aditya Roy Kapur Shraddha Kapoor - Поиск музыки онлайн на Mp3muzlo . Tum Hi Ho Aashiqui 2 Piano Tutorial Music Sheet MIDI With Lyrics.

Tum Hi Ho Aashiqui 2 Full Song With Lyrics Aditya Roy Kapur Shraddha Kapoor - Поиск музыки онлайн на Mp3muzlo, скачивайте музыку без ограничений! . 9 MB 00:03:43 7K. Слушать. Tum Hi Ho Song Instrumental Aashiqui 2. 5 MB 00:02:42 5K.

RG Banner:
Cover:
Screencaps:
Tum Hi Ho - Aashiqui 2 Full Song With Lyrics 2013 720p HD x264 AAC - SceneDL

Code:

General
Complete name : Tum Hi Ho - Aashiqui 2 Full Song With Lyrics 2013 720p HD x264 AAC - SceneDL.MP4
Format : MPEG-4
Format profile : Base Media
Codec ID : isom
File size : 43.8 MiB
Duration : 4mn 21s
Overall bit rate : 1 404 Kbps
Movie name : Aashiqui 2
Album : Aashiqui 2
Track name/Position : 1
Genre : BollyWood
Recorded date : 2013
Writing application : SceneDL
Cover : Yes
Comment : Encoded By SceneDL
mood : Soothing
subt : English
tvsn : 0
tves : 0
rati : (Binary)
stik : 6
Video
ID : 1
Format : AVC
Format/Info : Advanced Video Codec
Format profile : [email protected]
Format settings, CABAC : Yes
Format settings, ReFrames : 1 frame
Format settings, GOP : M=1, N=60
Codec ID : avc1
Codec ID/Info : Advanced Video Coding
Duration : 4mn 21s
Bit rate : 1 266 Kbps
Width : 1 280 pixels
Height : 720 pixels
Display aspect ratio : 16:9
Frame rate mode : Constant
Frame rate : 25.000 fps
Color space : YUV
Chroma subsampling : 4:2:0
Bit depth : 8 bits
Scan type : Progressive
Bits/(Pixel*Frame) : 0.055
Stream size : 39.5 MiB (90%)
Audio
ID : 2
Format : AAC
Format/Info : Advanced Audio Codec
Format profile : LC
Codec ID : 40
Duration : 4mn 21s
Bit rate mode : Constant
Bit rate : 128 Kbps
Channel(s) : 2 channels
Channel positions : Front: L R
Sampling rate : 44.1 KHz
Compression mode : Lossy
Stream size : 3.99 MiB (9%)

By:

SceneDL

Related music:
Britney Spears - Ooh La La 720p Music Video download Britney Spears - Ooh La La 720p Music Video
Video
English
66.7 MB
4.6
/images/5/2/britney-spears-ooh-la-la-720p-music-video-.jpg
Fall Out Boy - The Phoenix 720p Music Video download Fall Out Boy - The Phoenix 720p Music Video
Video
English
40.1 MB
4.1
/images/5/4/fall-out-boy-the-phoenix-720p-music-video-.jpg
Hot Chelle Rae - Hung Up 720p Music Video download Hot Chelle Rae - Hung Up 720p Music Video
Video
English
46.2 MB
4.5
/images/5/3/hot-chelle-rae-hung-up-720p-music-video-.jpg
Sunn Raha Hai - Full Video - 720p - MPEG - Aashiqui 2 download Sunn Raha Hai - Full Video - 720p - MPEG - Aashiqui 2
Video
Hindi
207.7 MB
4.7
/images/5/6/sunn-raha-hai-full-video-720p-mpeg-aashiqui-2.jpg
Beyoncé - XO 720p Music Video download Beyoncé - XO 720p Music Video
Video
English
58.3 MB
4.2
/images/5/7/beyoncc3a9-xo-720p-music-video-.jpg
Pitbull Ft Ke$ha - Timber 720p Music Video download Pitbull Ft Ke$ha - Timber 720p Music Video
Video
English
46.9 MB
4.3
/images/5/5/pitbull-ft-ke24ha-timber-720p-music-video-.jpg
Jessie J - Thunder 720p Music Video download Jessie J - Thunder 720p Music Video
Video
English
33.5 MB
4.4
/images/5/2/jessie-j-thunder-720p-music-video-.jpg
PSY – Gentleman Full HD - SceneDL 2013 320 kbps 1080p download PSY – Gentleman Full HD - SceneDL 2013 320 kbps 1080p
Video
Korean
165.0 MB
4.4
/images/5/5/psy-e28093-gentleman-full-hd-scenedl-2013-320-kbps-1080p.jpg
Little Mix - Little Me 720p Music Video download Little Mix - Little Me 720p Music Video
Video
English
37.9 MB
4.1
/images/5/5/little-mix-little-me-720p-music-video-.jpg
Justin Timberlake - TKO 720p Music Video download Justin Timberlake - TKO 720p Music Video
Video
English
78.9 MB
4.3
/images/5/1/justin-timberlake-tko-720p-music-video-.jpg