Files 42316
» » Selena Gomez - A Year Without Rain 720p Music Video
Language: English
Size: 42.8 MB
Votes: 220
Downloaded: 19
Category: Video
Format: MP3, FLAC
4.8

File list

  • Selena Gomez - A Year Without Rain [Music Video] 720p [Sbyky].MP4 (42.8 MB)

Selena Gomez & The Scene.

Selena Gomez & The Scene.

Это видео содержит материалы, принадлежащие пользователю UMG. Он заблокировал их показ в целях соблюдения авторских прав. Удалить все. Отключить. Сейчас начнется следующее видео. Страна: США. Безопасный режим: выкл.

i cant seem to find an HD version of a year without rain the official music video. On youtube theres only a 480p version.

Forums Video Mania Music Videos UPSCALED . . Dec 5, 2019 at 11:58 AM. Selena Gomez And Demi Lovato - One And The Same (UPSCALE 1080p ToxicNTN). Selena Gomez - A Year Without Rain (LPCM-REMASTERED FROM VIMEO 720p-1080p-DETOX). Discussion in 'UPSCALED' started by DETOX, Feb 27, 2018.

A Year Without Rain - Selena Gomez, The Scene. Открывайте новую музыку каждый день. Лента с персональными рекомендациями и музыкальными новинками, радио, подборки на любой вкус, удобное управление своей коллекцией. Миллионы композиций бесплатно и в хорошем качестве.

Selena Gomez - A Year Without Rain Live @ (Lopez Tonight . Selena Gomez- A Year Without Rain (Good Morning America). Selena Gomez Raps Super Bass by Nicki Minaj on Ne. usic.

Selena Gomez - A Year Without Rain Live @ (Lopez Tonight 1. 1.


General
Complete name : Selena Gomez - A Year Without Rain [Music Video] 720p [Sbyky].MP4
Format : MPEG-4
Format profile : Base Media / Version 2
Codec ID : mp42
File size : 42.8 MiB
Duration : 3mn 28s
Overall bit rate mode : Variable
Overall bit rate : 1 722 Kbps
Encoded date : UTC 2014-03-07 08:32:01
Tagged date : UTC 2014-03-07 08:32:01
Video
ID : 1
Format : AVC
Format/Info : Advanced Video Codec
Format profile : [email protected]
Format settings, CABAC : Yes
Format settings, ReFrames : 1 frame
Format settings, GOP : M=1, N=60
Codec ID : avc1
Codec ID/Info : Advanced Video Coding
Duration : 3mn 28s
Bit rate : 1 527 Kbps
Maximum bit rate : 3 312 Kbps
Width : 1 280 pixels
Height : 720 pixels
Display aspect ratio : 16:9
Frame rate mode : Constant
Frame rate : 23.976 fps
Color space : YUV
Chroma subsampling : 4:2:0
Bit depth : 8 bits
Scan type : Progressive
Bits/(Pixel*Frame) : 0.069
Stream size : 38.0 MiB (89%)
Tagged date : UTC 2014-03-07 08:32:02
Audio
ID : 2
Format : AAC
Format/Info : Advanced Audio Codec
Format profile : LC
Codec ID : 40
Duration : 3mn 28s
Bit rate mode : Variable
Bit rate : 192 Kbps
Maximum bit rate : 202 Kbps
Channel(s) : 2 channels
Channel positions : Front: L R
Sampling rate : 44.1 KHz
Compression mode : Lossy
Stream size : 4.78 MiB (11%)
Title : IsoMedia File Produced by Google, 5-11-2011
Encoded date : UTC 2014-03-07 08:32:02
Tagged date : UTC 2014-03-07 08:32:02
Shared By Sbyky

Related music:
Kim Cesarion - Undressed 720p Music Video download Kim Cesarion - Undressed 720p Music Video
Video
English
32.9 MB
4.4
/images/5/9/kim-cesarion-undressed-720p-music-video-.jpg
Selena Gomez - Slow Down 720p Music Video download Selena Gomez - Slow Down 720p Music Video
Video
English
46.1 MB
4.2
/images/5/1/selena-gomez-slow-down-720p-music-video-.jpg
Fall Out Boy - Where Did The Party Go 720p Music Video download Fall Out Boy - Where Did The Party Go 720p Music Video
Video
English
46.7 MB
4.9
/images/5/7/fall-out-boy-where-did-the-party-go-720p-music-video-.jpg
Alexandra Stan - Thanks For Leaving 720p Music Video download Alexandra Stan - Thanks For Leaving 720p Music Video
Video
English
35.9 MB
4.6
/images/5/1/alexandra-stan-thanks-for-leaving-720p-music-video-.jpg
Coldplay - Magic 720p Music Video download Coldplay - Magic 720p Music Video
Video
English
78.4 MB
4.2
/images/5/4/coldplay-magic-720p-music-video-.jpg
Arash Ft Helena - One Day 720p Music Video download Arash Ft Helena - One Day 720p Music Video
Video
English
43.6 MB
4.5
/images/5/3/arash-ft-helena-one-day-720p-music-video-.jpg
A$AP Rocky - Angels 720p Music Video download A$AP Rocky - Angels 720p Music Video
Video
English
66.0 MB
4.2
/images/5/2/a24ap-rocky-angels-720p-music-video-.jpg
Redlight King - Old Man 720p Music Video download Redlight King - Old Man 720p Music Video
Video
English
38.7 MB
4.4
/images/5/2/redlight-king-old-man-720p-music-video-.jpg