Files 42316
» » Redlight King - Old Man 720p Music Video
Language: English
Size: 38.7 MB
Votes: 905
Downloaded: 90
Category: Video
Format: MP3, FLAC
4.4

File list

  • Redlight King - Old Man [Music Video] 720p [Sbyky].MP4 (38.7 MB)

Old Man. Redlight King. Album Something for the Pain

Old Man. Album Something for the Pain. He didn’t have much A pair of hard working hands Everything that I needed I got it from the old man With a nine second dream He drove the Redlight Bandit And the grease on his hands Was the way he commanded And the life he demanded It kept us all in a struggle When he ruled with his fist It kept. us all out of trouble Even though he would leave He wore his heart on his sleeve And by the way that he walked He taught me how to believe.

OLD MAN. DHe didnt have much. FA pair of hard working hands. CEverything that I needed. GI got it from the old man. DWith a nine second dream. FHe drove the Redlight Bandit. C And the grease on his hands. FWas the way he commanded. DAnd the life he demanded

OLD MAN. DAnd the life he demanded. FIt kept us all in a struggle. CWhen he ruled with his fist. GIt kept us all out of trouble. DEven though he would leave. FHe wore his heart on his sleeve. CAnd by the way that he walked. FHe taught me how to believe. D Am7Old man look at my life. Em7 GTake a look, take a look. D Am7Old man look at my life

Redlight King - Old Man. Related Videos. Helia - Alejandro (Lady Gaga cover).

Redlight King - Old Man. Simple Plan - Perfect. 297 views · December 1. Related PagesSee All. Nu Metal posting. 38,240 Followers · Musician/Band. WWE NXT. 3,824,708 Followers · TV Show.

Redlight King - Old Man, 03:01, . MB download mp3 full version here. Album: Old Man, Something For The Pain. Old Man: Best 2 songs. Redlight King - Old Man 02:58.


General
Complete name : Redlight King - Old Man [Music Video] 720p [Sbyky].MP4
Format : MPEG-4
Format profile : Base Media / Version 2
Codec ID : mp42
File size : 38.7 MiB
Duration : 3mn 18s
Overall bit rate mode : Variable
Overall bit rate : 1 638 Kbps
Encoded date : UTC 2014-03-07 09:29:56
Tagged date : UTC 2014-03-07 09:29:56
Video
ID : 1
Format : AVC
Format/Info : Advanced Video Codec
Format profile : [email protected]
Format settings, CABAC : Yes
Format settings, ReFrames : 1 frame
Codec ID : avc1
Codec ID/Info : Advanced Video Coding
Duration : 3mn 18s
Bit rate : 1 443 Kbps
Maximum bit rate : 4 235 Kbps
Width : 1 280 pixels
Height : 720 pixels
Display aspect ratio : 16:9
Frame rate mode : Constant
Frame rate : 23.976 fps
Color space : YUV
Chroma subsampling : 4:2:0
Bit depth : 8 bits
Scan type : Progressive
Bits/(Pixel*Frame) : 0.065
Stream size : 34.1 MiB (88%)
Tagged date : UTC 2014-03-07 09:29:57
Audio
ID : 2
Format : AAC
Format/Info : Advanced Audio Codec
Format profile : LC
Codec ID : 40
Duration : 3mn 18s
Bit rate mode : Variable
Bit rate : 192 Kbps
Maximum bit rate : 201 Kbps
Channel(s) : 2 channels
Channel positions : Front: L R
Sampling rate : 44.1 KHz
Compression mode : Lossy
Stream size : 4.54 MiB (12%)
Title : IsoMedia File Produced by Google, 5-11-2011
Encoded date : UTC 2014-03-07 09:29:57
Tagged date : UTC 2014-03-07 09:29:57
Shared By Sbyky

Related music:
Kim Cesarion - Undressed 720p Music Video download Kim Cesarion - Undressed 720p Music Video
Video
English
32.9 MB
4.4
/images/5/9/kim-cesarion-undressed-720p-music-video-.jpg
Fall Out Boy - Where Did The Party Go 720p Music Video download Fall Out Boy - Where Did The Party Go 720p Music Video
Video
English
46.7 MB
4.9
/images/5/7/fall-out-boy-where-did-the-party-go-720p-music-video-.jpg
Redlight King - Comeback 1080p Music Video download Redlight King - Comeback 1080p Music Video
Video
English
68.1 MB
4.3
/images/5/1/redlight-king-comeback-1080p-music-video-.jpg
Alexandra Stan - Thanks For Leaving 720p Music Video download Alexandra Stan - Thanks For Leaving 720p Music Video
Video
English
35.9 MB
4.6
/images/5/1/alexandra-stan-thanks-for-leaving-720p-music-video-.jpg
Coldplay - Magic 720p Music Video download Coldplay - Magic 720p Music Video
Video
English
78.4 MB
4.2
/images/5/4/coldplay-magic-720p-music-video-.jpg
Arash Ft Helena - One Day 720p Music Video download Arash Ft Helena - One Day 720p Music Video
Video
English
43.6 MB
4.5
/images/5/3/arash-ft-helena-one-day-720p-music-video-.jpg
Redlight King - City Life 720p Music Video download Redlight King - City Life 720p Music Video
Video
English
29.1 MB
4.2
/images/5/7/redlight-king-city-life-720p-music-video-.jpg
A$AP Rocky - Angels 720p Music Video download A$AP Rocky - Angels 720p Music Video
Video
English
66.0 MB
4.2
/images/5/2/a24ap-rocky-angels-720p-music-video-.jpg