Files 42316
» » Gulaabo Video Song From Shaandaar - Full HD 1080p - Team truHD HEVC
Language: Hindi
Size: 48.2 MB
Votes: 918
Downloaded: 33
Category: Video
Format: MP3, FLAC
4.8

File list

  • Gulaabo Video Song From Shaandaar  - Full HD 1080p - Team truHD HEVC.mp4 (47.9 MB)
  • ScreenShot.jpg (231.0 KB)
  • Seeding From HostDzire.txt (0.1 KB)
  • Torrent Downloaded from Glodls.to.txt (0.2 KB)
  • Torrent Downloaded from kat.cr.txt (0.2 KB)

Udi Teri Aankhon Se Full HD Song Guzaarish Hrithik Roshan, Aishwarya Rai - Продолжительность: 3:44 T-Series 18 612 .

org Cinema Dekhe Mamma Video Song Singh Is Bliing Team truHD HEVC Video Music videos. com Gulaabo Video Song From Shaandaar  - Full HD 1080p - Team truHD HEVC Music. org Gulaabo Video Song From Shaandaar - Full HD 1080p - Team truHD HEVC Other. me Gulaabo Video Song From Shaandaar - Full HD 1080p - Team truHD HEVC Music. info rom-Shaandaar- - ruHD-HEVC Music. to Gulaabo Video Song From Shaandaar - Full HD 1080p - Team truHD HEVC Music.

Gulaabo Video Song From Shaandaar - Full HD 1080p - Team truHD HEVC. mp4 4. 3 MB. ScreenShot. jpg 232 KB. Seeding From HostDzire. txt 1 KB. Torrent Downloaded from Glodls. Torrent Downloaded from ka. r.

Seeding From High Speed Seedbox. King Regards truHD HEVC Team

Seeding From High Speed Seedbox. King Regards truHD HEVC Team.

Download Full HD MP4 Video Song Gulaabo from the Movie Shaandaar. You can download Gulaabo (Shaandaar) 720 P & 1080 P High Definition MP4 Blu-ray Quality video to your device for free. Gulaabo HD Video Caps. Gulaabo MP4 File Download Information. Video Format: MP4 HD (can be run on any Video Player and Device).

Shaandaar (2015)" by HollyBollyGo16 on Vimeo, the home for high quality videos and the people who love them. Get your team aligned with all the tools you need on one secure, reliable video platform.

This is "Gulaabo Full HD Song Shaandaar (2015)" by HollyBollyGo16 on Vimeo, the home for high quality videos and the people who love them.

Gulaabo Official Video Song Shaandaar 2015 HD 1080P. Karan Johar JOKES on P0rN BAN Shaandaar 2015 Trailer Launch.

Gulaabo - Full Video Shaandaar Alia Bhatt & Shahid Kapoor Vishal Dadlani Amit Trivedi. Raitaa Phailgaya SHAANDAAR 2015. Gulaabo Official Video Song Shaandaar 2015 HD 1080P. SHAANDAAR 2015 Bollywood Movie LifeTime WorldWide Box Office Collection Verdict Hit Or Flop. Shaandaar (2015) Full Movie Promotion Events Video Shahid Kapoor - Alia Bhatt. SHAANDAAR (2015): Theatrical trailer. vlc record 2016 05 14 13h12m05s Shaandaar 2015 Hindi BluRay 720p x264 AAC Hon3y mkv. Shaandaar 2015 Shahid Kapoor & Alia Talks About "Udta Punjab".

Gulaabo Video Song From Shaandaar - Full HD 1080p. Tum Saanson Mein Tum Dhadkan Mein HD 1080p Bluray - Humko Deewana Kar Gaye 2006 - Fresh Songs H. p4. clipped from Google - 8/2019. Bulleya FULL HD VIDEO Song Tune. Gulaabo HD 1080p - Shaandaar {2015}.

Gulaabo Video Song From Shaandaar  - Full HD 1080p - Team truHD HEVC

Team truHD HEVC Presents



Source: WEB-DL

Encoder: truHD HEVC Encoding Team


Encoded File Info:
General
Format : MPEG-4
Format profile : Base Media
Codec ID : iso4
File size : 47.9 MiB
Duration : 2mn 54s
Overall bit rate : 2 304 Kbps
Encoded date : UTC 2015-09-12 12:32:29
Tagged date : UTC 2015-09-12 12:32:29
Video
ID : 1
Format : HEVC
Format/Info : High Efficiency Video Coding
Codec ID : hvc1
Codec ID/Info : High Efficiency Video Coding
Duration : 2mn 54s
Bit rate : 2 109 Kbps
Maximum bit rate : 5 412 Kbps
Width : 1 920 pixels
Height : 1 080 pixels
Display aspect ratio : 16:9
Frame rate mode : Constant
Frame rate : 25.000 fps
Bits/(Pixel*Frame) : 0.041
Stream size : 43.9 MiB (92%)
Title : Video
Encoded date : UTC 2015-09-12 12:32:29
Tagged date : UTC 2015-09-12 12:32:32
Audio
ID : 2
Format : AC-3
Format/Info : Audio Coding 3
Mode extension : CM (complete main)
Format settings, Endianness : Big
Codec ID : ac-3
Duration : 2mn 54s
Bit rate mode : Constant
Bit rate : 192 Kbps
Maximum bit rate : 203 Kbps
Channel(s) : 6 channels
Channel positions : Front: L C R, Side: L R, LFE
Sampling rate : 48.0 KHz
Bit depth : 16 bits
Compression mode : Lossy
Stream size : 3.99 MiB (8%)
Title : Team truHD truAudio
Encoded date : UTC 2015-09-12 12:32:32
Tagged date : UTC 2015-09-12 12:32:32

ScreenShots:

Like Us On FB And Request Accepted @ FB Page Link
Note: We Test These HEVC Videos And Now RecommendMPC-HC - " A Perfect HEVC Player " Download @ Link To MPC-HC Player
KickAssTorrents: KAT Profile
GloTorrents: GloTorrent Profile
ThePirateBay: ThePirateBay Profile
Torrents: Profile


Note: All Videos Uploaded By Me Are For Preview Purpose. If You Like IT,GoogleIT And Buy IT - Thanks

Seeding From High Speed Seedbox


King Regards
truHD HEVC Team
Share Among Friends And Relatives:

Related music:
Khoya Khoya 1080p Full HD Song - Hero - Team truHD HEVC download Khoya Khoya 1080p Full HD Song - Hero - Team truHD HEVC
Video
Hindi
28.8 MB
4.5
/images/5/0/khoya-khoya-1080p-full-hd-song-hero-team-truhd-hevc.jpg
Fashion Waley Babu - Ft Goodshah & BADSHAH - Team truHD HEVC download Fashion Waley Babu - Ft Goodshah & BADSHAH - Team truHD HEVC
Video
Hindi
37.8 MB
4.3
/images/5/5/fashion-waley-babu-ft-goodshah-26-badshah-team-truhd-hevc.jpg
Roshan Prince Guzarishaan Gurmeet Singh - Full 1080p HD - Team truHD HEVC Full Video download Roshan Prince Guzarishaan Gurmeet Singh - Full 1080p HD - Team truHD HEVC Full Video
Video
Hindi
69.7 MB
4.4
/images/5/8/roshan-prince-guzarishaan-gurmeet-singh-full-1080p-hd-team-truhd-hevc-full-video.jpg
One Dream - Babbal Rai & Preet Hundal - Full HD 1080p - Team truHD HEVC download One Dream - Babbal Rai & Preet Hundal - Full HD 1080p - Team truHD HEVC
Video
Hindi
49.3 MB
4.5
/images/5/6/one-dream-babbal-rai-26-preet-hundal-full-hd-1080p-team-truhd-hevc.jpg
Naina Tose Lage Video Song By Rahat Fateh Ali - Full HD 1080p - Team truHD HEVC download Naina Tose Lage Video Song By Rahat Fateh Ali - Full HD 1080p - Team truHD HEVC
Video
Hindi
14.2 MB
4.0
/images/5/0/naina-tose-lage-video-song-by-rahat-fateh-ali-full-hd-1080p-team-truhd-hevc.jpg
Cinema Dekhe Mamma Video Song Singh Is Bliing - Full HD 1080p - Team truHD HEVC download Cinema Dekhe Mamma Video Song Singh Is Bliing - Full HD 1080p - Team truHD HEVC
Video
Hindi
36.8 MB
4.7
/images/5/4/cinema-dekhe-mamma-video-song-singh-is-bliing-full-hd-1080p-team-truhd-hevc.jpg
Ishq Chadha Hai Video Song By Darshan Raval - Xclusive Full HD - Team truHD HEVC download Ishq Chadha Hai Video Song By Darshan Raval - Xclusive Full HD - Team truHD HEVC
Video
Hindi
23.4 MB
4.0
/images/5/2/ishq-chadha-hai-video-song-by-darshan-raval-xclusive-full-hd-team-truhd-hevc.jpg