Files 42316
» » Enrique Iglesias - Heart Attack 720p Music Video
Language: English
Size: 57.5 MB
Votes: 451
Downloaded: 48
Category: Video
Format: MP3, FLAC
4.1

File list

  • Enrique Iglesias - Heart Attack [Music Video] 720p [Sbyky].MP4 (57.5 MB)

Forums Video Mania Music Videos Masters & BLU-RAY Master & Master RIP . Enrique Iglesias - Heart Attack (MasterRip 1080p)

Forums Video Mania Music Videos Masters & BLU-RAY Master & Master RIP . Enrique Iglesias - Heart Attack (MasterRip 1080p). Discussion in 'MASTER & MASTER RIP' started by shlanderous, Nov 12, 2014. Page 1 of 2. 1 2 Next . shlanderous Well-Known Member V. I. P. Donor. Joined: Oct 20, 2013. Format : MPEG-4 at 8 210 Kbps Length : 226 MiB for 3mn 50s 439ms.

Music video · 2013 · 3:51 min Free with Apple Music subscription. Get Apple Music on iOS, Android, Mac, and Windows. 2013 Universal International Music .


General
Complete name : Enrique Iglesias - Heart Attack [Music Video] 720p [Sbyky].MP4
Format : MPEG-4
Format profile : Base Media / Version 2
Codec ID : mp42
File size : 57.5 MiB
Duration : 3mn 50s
Overall bit rate mode : Variable
Overall bit rate : 2 094 Kbps
Encoded date : UTC 2013-10-22 12:09:56
Tagged date : UTC 2013-10-22 12:09:56
Video
ID : 1
Format : AVC
Format/Info : Advanced Video Codec
Format profile : [email protected]
Format settings, CABAC : Yes
Format settings, ReFrames : 3 frames
Codec ID : avc1
Codec ID/Info : Advanced Video Coding
Duration : 3mn 50s
Source duration : 3mn 50s
Bit rate : 1 839 Kbps
Width : 1 280 pixels
Height : 720 pixels
Display aspect ratio : 16:9
Frame rate mode : Constant
Frame rate : 23.976 fps
Color space : YUV
Chroma subsampling : 4:2:0
Bit depth : 8 bits
Scan type : Progressive
Bits/(Pixel*Frame) : 0.083
Stream size : 50.4 MiB (88%)
Source stream size : 50.4 MiB (88%)
Encoded date : UTC 2013-10-22 12:09:56
Tagged date : UTC 2013-10-22 12:09:56
Audio
ID : 2
Format : AAC
Format/Info : Advanced Audio Codec
Format profile : LC
Codec ID : 40
Duration : 3mn 50s
Bit rate mode : Variable
Bit rate : 254 Kbps
Channel(s) : 2 channels
Channel positions : Front: L R
Sampling rate : 44.1 KHz
Compression mode : Lossy
Stream size : 6.96 MiB (12%)
Encoded date : UTC 2013-10-22 12:09:44
Tagged date : UTC 2013-10-22 12:09:44
Shared By Sbyky

Related music:
Enrique Iglesias Ft Sammy Adams - Finally Found You 1080p Music Video download Enrique Iglesias Ft Sammy Adams - Finally Found You 1080p Music Video
Video
English
83.1 MB
4.3
/images/5/6/enrique-iglesias-ft-sammy-adams-finally-found-you-1080p-music-video-.jpg
Fall Out Boy - The Phoenix 720p Music Video download Fall Out Boy - The Phoenix 720p Music Video
Video
English
40.1 MB
4.1
/images/5/4/fall-out-boy-the-phoenix-720p-music-video-.jpg
Madison Beer - Melodies 720p Music Video download Madison Beer - Melodies 720p Music Video
Video
English
65.3 MB
4.7
/images/5/7/madison-beer-melodies-720p-music-video-.jpg
Beyoncé - XO 720p Music Video download Beyoncé - XO 720p Music Video
Video
English
58.3 MB
4.2
/images/5/7/beyoncc3a9-xo-720p-music-video-.jpg
Enrique Iglesias Ft Romeo Santos - Loco 720p Music Video download Enrique Iglesias Ft Romeo Santos - Loco 720p Music Video
Video
Spanish
37.7 MB
4.2
/images/5/6/enrique-iglesias-ft-romeo-santos-loco-720p-music-video-.jpg
Little Mix - Little Me 720p Music Video download Little Mix - Little Me 720p Music Video
Video
English
37.9 MB
4.1
/images/5/5/little-mix-little-me-720p-music-video-.jpg
Enrique Iglesias Ft Sammy Adams - Finally Found You 720p Music Video download Enrique Iglesias Ft Sammy Adams - Finally Found You 720p Music Video
Video
English
42.9 MB
4.1
/images/5/6/enrique-iglesias-ft-sammy-adams-finally-found-you-720p-music-video-.jpg