Files 42316
» » Charli XCX - Boom Clap 1080p Music Video
Language: English
Size: 57.6 MB
Votes: 887
Downloaded: 85
Category: Video
Format: MP3, FLAC
4.9

File list

  • Charli XCX - Boom Clap [Music Video] 1080p [Sbyky].mp4 (57.6 MB)

For 720p: http://.to/torrent/1005254/Billboard-Hot-100-11-October-2014-720p-Sbyky/
General
Complete name : Charli XCX - Boom Clap [Music Video] 1080p [Sbyky].mp4
Format : MPEG-4
Format profile : Base Media
Codec ID : isom
File size : 57.6 MiB
Duration : 2mn 57s
Overall bit rate mode : Variable
Overall bit rate : 2 729 Kbps
Encoded date : UTC 2014-06-04 15:52:27
Tagged date : UTC 2014-06-04 15:52:27
Video
ID : 1
Format : AVC
Format/Info : Advanced Video Codec
Format profile : [email protected]
Format settings, CABAC : Yes
Format settings, ReFrames : 3 frames
Codec ID : avc1
Codec ID/Info : Advanced Video Coding
Duration : 2mn 57s
Duration_LastFrame : -39ms
Bit rate : 2 601 Kbps
Width : 1 920 pixels
Height : 1 080 pixels
Display aspect ratio : 16:9
Frame rate mode : Constant
Frame rate : 25.000 fps
Color space : YUV
Chroma subsampling : 4:2:0
Bit depth : 8 bits
Scan type : Progressive
Bits/(Pixel*Frame) : 0.050
Stream size : 54.9 MiB (95%)
Encoded date : UTC 2014-06-04 15:52:27
Tagged date : UTC 2014-06-04 15:52:27
Audio
ID : 2
Format : AAC
Format/Info : Advanced Audio Codec
Format profile : LC
Codec ID : 40
Duration : 2mn 57s
Bit rate mode : Variable
Bit rate : 126 Kbps
Channel(s) : 2 channels
Channel positions : Front: L R
Sampling rate : 44.1 KHz
Compression mode : Lossy
Stream size : 2.65 MiB (5%)
Encoded date : UTC 2014-06-04 15:50:56
Tagged date : UTC 2014-06-04 15:50:56
Shared By Sbyky

Related music:
Lily Allen - Air Balloon 1080p Music Video download Lily Allen - Air Balloon 1080p Music Video
Video
English
110.7 MB
4.9
/images/5/0/lily-allen-air-balloon-1080p-music-video-.jpg
Nina Nesbitt - Selfies 1080p Music Video download Nina Nesbitt - Selfies 1080p Music Video
Video
English
56.0 MB
4.4
/images/5/3/nina-nesbitt-selfies-1080p-music-video-.jpg
Lily Allen - Air Balloon 720p Music Video download Lily Allen - Air Balloon 720p Music Video
Video
English
58.5 MB
4.2
/images/5/3/lily-allen-air-balloon-720p-music-video-.jpg
Dj Robert Georgescu Ft Lara - Beside You 1080p Music Video download Dj Robert Georgescu Ft Lara - Beside You 1080p Music Video
Video
English
60.9 MB
4.2
/images/5/9/dj-robert-georgescu-ft-lara-beside-you-1080p-music-video-.jpg
Karmin - I Want It All 1080p Music Video download Karmin - I Want It All 1080p Music Video
Video
English
85.2 MB
4.6
/images/5/4/karmin-i-want-it-all-1080p-music-video-.jpg
T I Ft Iggy Azalea - No Mediocre 1080p download T I Ft Iggy Azalea - No Mediocre 1080p
Video
English
80.3 MB
4.4
/images/5/2/t-i-ft-iggy-azalea-no-mediocre-1080p-.jpg
One Direction - Midnight Memories 1080p Music Video download One Direction - Midnight Memories 1080p Music Video
Video
English
93.9 MB
4.4
/images/5/6/one-direction-midnight-memories-1080p-music-video-.jpg
Alizée - Blonde 1080p Music Video download Alizée - Blonde 1080p Music Video
Video
French
86.3 MB
4.3
/images/5/6/alizc3a9e-blonde-1080p-music-video-.jpg
Tyga Ft Young Thug - Hookah 1080p Music Video download Tyga Ft Young Thug - Hookah 1080p Music Video
Video
English
104.1 MB
4.4
/images/5/5/tyga-ft-young-thug-hookah-1080p-music-video-.jpg