Files 42316
» » Robin Thicke - Give It 2 U Remix ft Kendrick Lamar & 2 Chainz 2013
Language: English
Size: 70.0 MB
Votes: 213
Downloaded: 13
Category: Video
Format: MP3, FLAC
4.2

File list

  • Robin Thicke - Give It 2 U Remix ft.mp4 (70.0 MB)
  • Robin Thicke - Give It 2 U Remix ft.srt (6.1 KB)

Robin Thicke – Give It To You Feat 2 Chainz & Kendric. :49. Kendrick Lamar & 2 Chainz – Give It 2 U (Moto Blanco Explicit Club Mix).

Robin Thicke – Give It To You Feat 2 Chainz & Kendric. Robin Thicke – Give It 2 U feat Kendrick Lamar ra. 4:17. Kendrick Lamar, 2 Chainz – Give It 2 U. 6:16. Give It 2 U – (Explicit). Robin Thicke – Give It To You Feat 2 Chainz & Kendrick Lamar. 2 Chainz & Kendrick Lamar – Give It To You. 3:49. The Vocal Masters – Give It 2 U.

Girl, give it to me, Girl, you know what it do, girl, give it to me, I got somethin' brand new, girl . 2 Chainz! Highly respected, Black Michael Jackson. When the DJ bring it back, I pump it back like a chiropractor.

Girl, give it to me, Girl, you know what it do, girl, give it to me, I got somethin' brand new, girl, give it to me, I'll put it all on you, girl, give it to me. Wooo! I got a gift for ya, I got this for ya, a little Thicke for ya, A big kiss for ya, I got a hit for ya, Big dick for ya, let me give it to ya, Baby, baby, I got a call for ya, I got a whip for ya, black car for ya, Ball hard for ya, I know you wanna. get fancy, I know you wanna start dancin'.

Kendrick Lamar, 2 Chainz Give It 2 U. (play). Kendrick Lamar & 2 Chainz Give It 2 U (Remix) (Explicit). Robin Thicke Give It to You Feat 2 Chainz & Kendrick Lamar) (OST Ted 2 Bonus.

Featuring Kendrick Lamar & 2 Chainz. Release Date September 16, 2013. Remix Of. Give It 2 U by Robin Thicke (Ft. Produced by Cirkut & Dr. Luke. Give It 2 U (Remix) Lyrics. Girl give it to me Girl you know what it do Girl give it to me I got somethin' brand new Girl give it to me I'll put it all on you Girl give it to me Woooh, I got a gift for yah I got this for yah A little Thicke for yah A big kiss for. yah I got a hit for yah Big dick for yah Let me give it to yah Baby, baby I gotta car for yah I got a whip for you Black card for yah Ball hard for you I know you wanna get fancy I know you wanna start dancin'.

Full Audio by Robin Thicke and Kendrick Lamar, 2 Chainz performing Give It 2 U. (C) 2013 Star Trak, LL. New Radicals You Get What You Give. Москва ФМ. Red Hot Chili Peppers Californication. (C) 2013 Star Trak, LLC. Has been played on. Russia .

Music video · 2013 · 4:31 min. Free with Apple Music subscription. Kendrick Lamar & 2 Chainz). 2013 Star Trak, LLC.

2 Chainz & Kendrick Lamar]. Robin ThickePro Unlimited. 9,258 followers9,258. Release date: 1 January 2013.

Robin Thicke –Give It 2 U (Remix) feat Kendrick Lamar & . Robin Thicke Ft. Kendrich Lamar –Give It 2 U (Moto Blanco Clean Club Mix) 2013. :23. Robin Thicke & Kendrick Lamar & 2 Chainz –Give it to you (radio). Kendrick Lamar and 2 Chainz –Give It 2 U (Remix Clean). Record CLUB –Robin Thicke feat. Kendrick Lamar - Give i. :59. Kendrick Lamar –Give it 2 U. JU. u Robin Thicke –JUW. ru Give It 2 U ft Kendrick Lamar. robin thicke –give it 2 u feat kendrick lamar. Kendrick Lamar, 2 Chainz –Give It 2 U. 3:50.


[General]
Format : MPEG-4
Format profile : Base Media
Codec ID : isom
File size : 70.0 MiB
Duration : 4mn 30s
Overall bit rate mode : Variable
Overall bit rate : 2 173 Kbps
Encoded date : UTC 2013-08-21 17:03:16
Tagged date : UTC 2013-08-21 17:03:16
Writing application : Lavf54.63.104
[Video]
ID : 1
Format : AVC
Format/Info : Advanced Video Codec
Format profile : [email protected]
Format settings, CABAC : Yes
Format settings, ReFrames : 1 frame
Codec ID : avc1
Codec ID/Info : Advanced Video Coding
Duration : 4mn 30s
Bit rate : 2 023 Kbps
Width : 852 pixels
Height : 480 pixels
Display aspect ratio : 16:9
Frame rate mode : Constant
Frame rate : 23.976 fps
Color space : YUV
Chroma subsampling : 4:2:0
Bit depth : 8 bits
Scan type : Progressive
Bits/(Pixel*Frame) : 0.206
Stream size : 65.2 MiB (93%)
Writing library : x264 core 129
Encoded date : UTC 2013-08-21 17:03:16
Tagged date : UTC 2013-08-21 17:03:16
[Audio]
ID : 2
Format : AAC
Format/Info : Advanced Audio Codec
Format profile : LC
Codec ID : 40
Duration : 4mn 30s
Duration_FirstFrame : 70ms
Bit rate mode : Variable
Bit rate : 144 Kbps
Maximum bit rate : 176 Kbps
Channel(s) : 2 channels
Channel positions : Front: L R
Sampling rate : 44.1 KHz
Compression mode : Lossy
Stream size : 4.66 MiB (7%)
Encoded date : UTC 2013-08-21 17:03:16
Tagged date : UTC 2013-08-21 17:03:16

Related music:
Avicii - Wake Me Up 2013 download Avicii - Wake Me Up 2013
Video
English
43.3 MB
4.1
/images/5/7/avicii-wake-me-up-2013.jpg
Fifth Harmony - Miss Movin' On 2013 download Fifth Harmony - Miss Movin' On 2013
Video
English
52.0 MB
4.6
/images/5/2/fifth-harmony-miss-movin27-on-2013.jpg
Drake - Hold On, We're Going Home ft Majid Jordan 2013 download Drake - Hold On, We're Going Home ft Majid Jordan 2013
Video
English
47.1 MB
4.6
/images/5/4/drake-hold-on2c-we27re-going-home-ft-majid-jordan-2013.jpg
Robin Thicke Ft 2 Chainz & Kendrick Lamar - Give It 2 U 720p download Robin Thicke Ft 2 Chainz & Kendrick Lamar - Give It 2 U 720p
Video
English
102.9 MB
4.4
/images/5/5/robin-thicke-ft-2-chainz-26-kendrick-lamar-give-it-2-u-720p-.jpg
Britney Spears - Work Bitch 2013 download Britney Spears - Work Bitch 2013
Video
English
42.1 MB
4.1
/images/5/3/britney-spears-work-bitch-2013.jpg
Robin Thicke - Feel Good 1080p Music Video download Robin Thicke - Feel Good 1080p Music Video
Video
English
99.7 MB
4.7
/images/5/3/robin-thicke-feel-good-1080p-music-video-.jpg
Lana Del Rey - Summertime Sadness 2012 download Lana Del Rey - Summertime Sadness 2012
Video
English
37.1 MB
4.8
/images/5/0/lana-del-rey-summertime-sadness-2012.jpg
Zendaya - Replay 2013 download Zendaya - Replay 2013
Video
English
37.0 MB
4.4
/images/5/1/zendaya-replay-2013.jpg