Files 42316
» » Pusha T Ft Chris Brown - Sweet Serenade 720p
Language: English
Size: 48.7 MB
Votes: 513
Downloaded: 49
Category: Video
Format: MP3, FLAC
4.8

File list

  • Pusha T Ft. Chris Brown - Sweet Serenade [Explicit] 720p [Sbyky].MP4 (48.7 MB)

Sweet Serenade Lyrics

Sweet Serenade Lyrics. Come on, let's toast the champagne, this one's for the life Did everything you could to be here for the night Man, it feels good, everything is right Energy is strong enough to brighten city lights My whole team winning, no vision on quitting I'd rather say I did than let them busters say I didn't.

Sweet Serenade (In the Style of Pusha T & Chris Brown). Открывайте новую музыку каждый день. Лента с персональными рекомендациями и музыкальными новинками, радио, подборки на любой вкус, удобное управление своей коллекцией. Миллионы композиций бесплатно и в хорошем качестве.

ft chris brown Pusha t sweet serenade instrumental feat.

Открывайте новую музыку каждый день.

Pusha T Chris Brown Sbyky. Video ID : 1 Format : AVC Format/Info : Advanced Video Codec Format profile : [email protected] 1 Format settings, CABAC : Yes Format settings, ReFrames : 3 frames Codec ID : avc1 Codec ID/Info : Advanced Video Coding Duration : 3mn 58s Bit rate : 1 454 Kbps Width : 1 280 pixels Height : 720 pixels Display aspect ratio : 16:9 Frame rate mode : Variable Frame rate

Chris Brown) - или слушать онлайн Pusha T - Sweet Serenade (ft. Chris Brown) бесплатно.

Chris Brown) - или слушать онлайн Pusha T - Sweet Serenade (ft. Pusha T - Sweet Serenade (ft. Chris Brown). Cлушать песню онлайн или скачать бесплатно песни.


General
Complete name : Pusha T Ft. Chris Brown - Sweet Serenade [Explicit] 720p [Sbyky].MP4
Format : MPEG-4
Format profile : Base Media
Codec ID : isom
File size : 48.7 MiB
Duration : 3mn 59s
Overall bit rate mode : Variable
Overall bit rate : 1 710 Kbps
Encoded date : UTC 2013-10-07 02:52:36
Tagged date : UTC 2013-10-07 02:52:36
Video
ID : 1
Format : AVC
Format/Info : Advanced Video Codec
Format profile : [email protected]
Format settings, CABAC : Yes
Format settings, ReFrames : 3 frames
Codec ID : avc1
Codec ID/Info : Advanced Video Coding
Duration : 3mn 58s
Bit rate : 1 454 Kbps
Width : 1 280 pixels
Height : 720 pixels
Display aspect ratio : 16:9
Frame rate mode : Variable
Frame rate : 23.976 fps
Minimum frame rate : 23.974 fps
Maximum frame rate : 24.168 fps
Color space : YUV
Chroma subsampling : 4:2:0
Bit depth : 8 bits
Scan type : Progressive
Bits/(Pixel*Frame) : 0.066
Stream size : 41.4 MiB (85%)
Encoded date : UTC 2013-10-07 02:52:36
Tagged date : UTC 2013-10-07 02:52:36
Audio
ID : 2
Format : AAC
Format/Info : Advanced Audio Codec
Format profile : LC
Codec ID : 40
Duration : 3mn 59s
Bit rate mode : Variable
Bit rate : 254 Kbps
Channel(s) : 2 channels
Channel positions : Front: L R
Sampling rate : 44.1 KHz
Compression mode : Lossy
Delay relative to video : -3s 754ms
Stream size : 7.23 MiB (15%)
Encoded date : UTC 2013-10-07 02:52:44
Tagged date : UTC 2013-10-07 02:52:44
Shared By Sbyky

Related music:
Eminem Ft Rihanna - The Monster 720p download Eminem Ft Rihanna - The Monster 720p
Video
English
57.4 MB
4.9
/images/5/3/eminem-ft-rihanna-the-monster-720p-.jpg
The Janoskians - Best Friends 720p download The Janoskians - Best Friends 720p
Video
English
57.2 MB
4.5
/images/5/1/the-janoskians-best-friends-720p-.jpg
Madison Beer - Melodies 720p Music Video download Madison Beer - Melodies 720p Music Video
Video
English
65.3 MB
4.7
/images/5/7/madison-beer-melodies-720p-music-video-.jpg
Ariana Grande Ft Big Sean - Right There 720p Music Video download Ariana Grande Ft Big Sean - Right There 720p Music Video
Video
English
63.4 MB
4.1
/images/5/6/ariana-grande-ft-big-sean-right-there-720p-music-video-.jpg
Maroon 5 Ft Christina Aguilera - Moves Like Jagger 720p Music Video download Maroon 5 Ft Christina Aguilera - Moves Like Jagger 720p Music Video
Video
English
55.2 MB
4.5
/images/5/6/maroon-5-ft-christina-aguilera-moves-like-jagger-720p-music-video-.jpg
Miley Cyrus - Party In The U S A 720p Music Video download Miley Cyrus - Party In The U S A 720p Music Video
Video
English
55.8 MB
4.5
/images/5/6/miley-cyrus-party-in-the-u-s-a-720p-music-video-.jpg
Pitbull Ft Ke$ha - Timber 720p Music Video download Pitbull Ft Ke$ha - Timber 720p Music Video
Video
English
46.9 MB
4.3
/images/5/5/pitbull-ft-ke24ha-timber-720p-music-video-.jpg
Keyshia Cole - I Choose You 720p Music Video download Keyshia Cole - I Choose You 720p Music Video
Video
English
68.3 MB
4.1
/images/5/5/keyshia-cole-i-choose-you-720p-music-video-.jpg
A$AP Rocky - Goldie 720p download A$AP Rocky - Goldie 720p
Video
English
39.1 MB
4.8
/images/5/9/a24ap-rocky-goldie-720p-.jpg
Little Mix - Little Me 720p Music Video download Little Mix - Little Me 720p Music Video
Video
English
37.9 MB
4.1
/images/5/5/little-mix-little-me-720p-music-video-.jpg