Files 42316
» » Trey Songz - Never Again x264 VX 1080p
Language: English
Size: 42.3 MB
Votes: 333
Downloaded: 30
Category: Video
Format: MP3, FLAC
4.1

File list

  • Trey Songz - Never Again (1080p) x264 [VX] [P2PDL].mp4 (38.0 MB)
  • Trey Songz - Never Again.m4a (4.2 MB)
  • Cover.jpg (63.4 KB)
  • Info.nfo (13.3 KB)
  • Torrent downloaded from TinyM.eu.txt (0.3 KB)
  • Torrent downloaded from P2PDL.com.txt (0.0 KB)

Produced by Matt Prime.

Produced by Matt Prime. Album Chapter V. Never Again Lyrics. That I will never, ever see you again And I'll never, ever hold you again In my arms, never, ever again And I will never, ever feel you again But I will always love you the same My girl, never, ever again I wish we had a little more luck in love. Now you are long gone But I still got your birthday card Yeah, with a stamp and no address. Oh now I can't stop dreaming 'bout you I'm a lost star without you It hurts but it's true.

Trey Songz "Never Again": And the days are gone When you and I would take the world on Yeah, to the place where no. .

Trey Songz "Never Again": And the days are gone When you and I would take the world on Yeah, to the place where no one knows .That I will never ever see you again And I'll never ever hold you again In my arms, never ever again, And I will never ever feel you again But I will always love you the same My girl never ever again I wish we had a little more luck in love. Now you are long gone But I still got your birthday card Yeah, with a stamp and no address Oh now I can't stop dreaming 'bout you I'm a lost star without you It hurts but it's true.

Download Trey Songz - Never Again : Rusfolder DepositFiles. Related Articles: Trey Songz - Last Time

Download Trey Songz - Never Again : Rusfolder DepositFiles. Related Articles: Trey Songz - Last Time. Ace Hood ft Trey Songz - Ride. YoungMuser 22 November 2012 02:43.

Trey Songz Never Again Music Video 1080p P2PDL. 1080p Full HD MP4 Video +. 128 Kbps/VBR M4A Audio

Trey Songz Never Again Music Video 1080p P2PDL. Uploaded: 2012-11-23 17:35:38 GMT. By: Vitamin X. 128 Kbps/VBR M4A Audio.

Best Full Movie You Must Watch 2019. 33,132,223 Views · 27 June. Mowgli - Legend Of The Jungle 2018.

Trey Songz Never Again слушать онлайн или скачать бесплатно песню на телефон, андроид, айпад или айфон вы можете на сайте mp3fan. Trey Songz Never Again DJ Tiësto Chris Botti Estate Филик НРП Евангелие от Матфея, 9 глава саксофон соблазн Xcho I can fly (Remix) влад цой Last All Night (Koala) (feat.

Never Again - Trey Songz. Album: Chapter V, 2012. Trey Songz - Never Again Trey Songz - Never Again Trey Songz - Never Again Trey Songz - Never Again Trey Songz - Never Again.


Trey Songz - Never Again {M4A+MP4} (1080p) x264 [VX] [P2PDL]
1080p Full HD MP4 Video
+
128 Kbps/VBR M4A Audio

Code:

General
Complete name : Trey Songz - Never Again (1080p) x264 [VX] [P2PDL].mp4
Format : MPEG-4
Format profile : Base Media / Version 2
Codec ID : mp42
File size : 38.0 MiB
Duration : 3mn 48s
Video
ID : 1
Format : AVC
Bit rate : 1 264 Kbps
Width : 1 920 pixels
Height : 1 080 pixels
Display aspect ratio : 16:9
Frame rate mode : Variable
Frame rate : 23.976 fps
Chroma subsampling : 4:2:0
Bit depth : 8 bits
Scan type : Progressive
Bits/(Pixel*Frame) : 0.025
Stream size : 34.4 MiB (90%)
Writing library : x264 core 128
Audio
ID : 2
Format : AAC
Format/Info : Advanced Audio Codec
Format profile : LC
Codec ID : 40
Duration : 3mn 48s
Bit rate mode : Variable
Bit rate : 128 Kbps
Maximum bit rate : 256 Kbps
Channel(s) : 2 channels
Channel positions : Front: L R
Sampling rate : 48.0 KHz
Stream size : 3.48 MiB (9%)
Subtitles : No

Screens:


Thumbs:


Code:

Notes:
* Recommended to use latest version VLC Media Player.
* Install shark007 codecs in case of any kind of problem in playback (For non-VLC Media Player users).
* Alternatively, install Core AVC codecs, the fastest decoder that there is coupled with Community Center Codec Pack and play on Windows Media Player Classic.
* Read NFO
Greets to: VYTO, a2zRG, staff members at ExtraTorrent, TPB, H33T, KAT, , PublicHD, Ahashare, TorrentMafia, BTScene, P2PDL, and all others
Encoder Notes: Looking For Early Access To Anything You Can Provide DVDScr, R5, DVDRips, BluRay, Direct Audio, Early Music
Releases, Seedboxes, Links, Dedicated Servers anything u can provide, Advance / Promo CDs/DVDs. If You Got anything to
offer contact me at "[email protected]"


Related music:
J Cole Ft Trey Songz - Can't Get Enough 1080p Clean download J Cole Ft Trey Songz - Can't Get Enough 1080p Clean
Video
English
116.7 MB
4.2
/images/5/5/j-cole-ft-trey-songz-can27t-get-enough-1080p-clean-.jpg
Saans Jab tak hai jaan 2012 1080p HD Mys download Saans Jab tak hai jaan 2012 1080p HD Mys
DVD
English
82.7 MB
4.5
/images/5/3/saans-jab-tak-hai-jaan-2012-1080p-hd-mys.jpg
Mike Will Made It ft Miley Cyrus Juicy J 23 1080p HDTV-shadowCopy download Mike Will Made It ft Miley Cyrus Juicy J 23 1080p HDTV-shadowCopy
Video
English
143.1 MB
4.8
/images/5/5/mike-will-made-it-ft-miley-cyrus-juicy-j-23-1080p-hdtv-shadowcopy.jpg
Rita Ora - Radioactive x264 VX 1080p download Rita Ora - Radioactive x264 VX 1080p
Video
English
47.5 MB
4.8
/images/5/9/rita-ora-radioactive-x264-vx-1080p.jpg
Stromae - Papaoutai 1080p Music Video download Stromae - Papaoutai 1080p Music Video
Video
French
83.4 MB
4.5
/images/5/3/stromae-papaoutai-1080p-music-video-.jpg
One Direction - Midnight Memories X264 1080p TonyStark download One Direction - Midnight Memories X264 1080p TonyStark
Video
English
101.3 MB
4.4
/images/5/5/one-direction-midnight-memories-x264-1080p-tonystark.jpg