Files 42316
» » Flo Rida Ft Pitbull - Can't Believe It 1080p Music Video
Language: English
Size: 166.9 MB
Votes: 833
Downloaded: 29
Category: Video
Format: MP3, FLAC
4.7

File list

  • Flo Rida Ft. Pitbull - Can't Believe It [Music Video] 1080p [Sbyky].mp4 (166.9 MB)

Can't Believe It (feat.

Can't Believe It (feat. Pitbull ft. Chris Brown - International Love (Official Video) - Продолжительность: 4:09 Pitbull Recommended for you. 4:09.

HD free download Flo Rida ft. Pitbull - Can't Believe It 1080p 2013 Скачать видео. The hit maker Flo Rida returns with his latest dance-heavy single ‘Can’t Believe It’ featuring fellow Florida native Pitbull.

Alex Ferrari, Flo Rida, Alex Polovnikov & Dj Street – Can t Believe It Wistle Bara Bara (Tonystar.

Flo Rida/Chris Brown – Megamix. Alex Ferrari, Flo Rida, Alex Polovnikov & Dj Street – Can t Believe It Wistle Bara Bara (Tonysta. :06. Pitbull – Can t Believe It (Misha Pioner Remix One. :48. music for krasnoyarsk – . Flo Rida - Can t Believe It (Eddi Roya. :43. Flo Rida – Can t Believe It feat Pitbull) (320. 4:05. Flo Rida - Club Can t Handle Me ft.

Flo Rida - Can't Believe It ft. Pitbull 1080p.

I Can't Believe It I Can't Believe It I Can't Believe It What you do to me girl Watch how you rock my world I Can't Believe It, cannot believe it at all Rock it rock it, and let's see the world together tonight.

Download MP3. MP3 320Kbps, . 2 Mb MP3 128Kbps, . Mb MP3 64Kbps, . Mb. Flo Rida feat. I Can't Believe It I Can't Believe It I Can't Believe It What you do to me girl Watch how you rock my world I Can't Believe It, cannot believe it at all Rock it rock it, and let's see the world together tonight. Увезите меня на Дип-хаус. Princesses Don't Cry. Aviva.


General
Complete name : Flo Rida Ft. Pitbull - Can't Believe It [Music Video] 1080p [Sbyky].mp4
Format : MPEG-4
Format profile : Base Media / Version 2
Codec ID : mp42
File size : 167 MiB
Duration : 3mn 46s
Overall bit rate mode : Variable
Overall bit rate : 6 193 Kbps
Encoded date : UTC 2013-07-27 23:05:00
Tagged date : UTC 2013-07-27 23:05:00
Video
ID : 1
Format : AVC
Format/Info : Advanced Video Codec
Format profile : [email protected]
Format settings, CABAC : Yes
Format settings, ReFrames : 1 frame
Codec ID : avc1
Codec ID/Info : Advanced Video Coding
Duration : 3mn 46s
Bit rate : 5 999 Kbps
Maximum bit rate : 10.1 Mbps
Width : 1 920 pixels
Height : 1 080 pixels
Display aspect ratio : 16:9
Frame rate mode : Constant
Frame rate : 23.976 fps
Color space : YUV
Chroma subsampling : 4:2:0
Bit depth : 8 bits
Scan type : Progressive
Bits/(Pixel*Frame) : 0.121
Stream size : 162 MiB (97%)
Tagged date : UTC 2013-07-27 23:05:13
Audio
ID : 2
Format : AAC
Format/Info : Advanced Audio Codec
Format profile : LC
Codec ID : 40
Duration : 3mn 46s
Bit rate mode : Variable
Bit rate : 192 Kbps
Maximum bit rate : 201 Kbps
Channel(s) : 2 channels
Channel positions : Front: L R
Sampling rate : 44.1 KHz
Compression mode : Lossy
Stream size : 5.17 MiB (3%)
Title : IsoMedia File Produced by Google, 5-11-2011
Encoded date : UTC 2013-07-27 23:05:09
Tagged date : UTC 2013-07-27 23:05:13
Shared By Sbyky

Related music:
Pitbull Ft Ke$ha - Timber 1080p Music Video download Pitbull Ft Ke$ha - Timber 1080p Music Video
Video
English
85.8 MB
4.4
/images/5/7/pitbull-ft-ke24ha-timber-1080p-music-video-.jpg
Flo Rida Ft Pitbull - Can't Believe It 720p Music Video download Flo Rida Ft Pitbull - Can't Believe It 720p Music Video
Video
English
76.7 MB
4.2
/images/5/0/flo-rida-ft-pitbull-can27t-believe-it-720p-music-video-.jpg
J Cole - Work Out 1080p Music Video download J Cole - Work Out 1080p Music Video
Video
English
153.3 MB
4.1
/images/5/3/j-cole-work-out-1080p-music-video-.jpg
Jennifer Lopez Ft Pitbull - Live It Up 1080p Music Video download Jennifer Lopez Ft Pitbull - Live It Up 1080p Music Video
Video
English
192.8 MB
4.2
/images/5/5/jennifer-lopez-ft-pitbull-live-it-up-1080p-music-video-.jpg
Little Mix - Little Me 1080p Music Video download Little Mix - Little Me 1080p Music Video
Video
English
74.7 MB
4.9
/images/5/1/little-mix-little-me-1080p-music-video-.jpg
Pitbull - I Know You Want Me 1080p Music Video download Pitbull - I Know You Want Me 1080p Music Video
Video
English
96.3 MB
4.3
/images/5/9/pitbull-i-know-you-want-me-1080p-music-video-.jpg
Pitbull Ft Christina Aguilera - Feel This Moment 1080p Music Video download Pitbull Ft Christina Aguilera - Feel This Moment 1080p Music Video
Video
English
137.4 MB
4.0
/images/5/9/pitbull-ft-christina-aguilera-feel-this-moment-1080p-music-video-.jpg
INNA - Wow 1080p Music Video download INNA - Wow 1080p Music Video
Video
English
152.3 MB
4.0
/images/noimage.jpg
Wiz Khalifa Ft Akon - Let It Go 1080p Music Video download Wiz Khalifa Ft Akon - Let It Go 1080p Music Video
Video
English
117.5 MB
4.2
/images/5/6/wiz-khalifa-ft-akon-let-it-go-1080p-music-video-.jpg