Files 42316
» » Alexandra Stan - Thanks For Leaving 720p Music Video
Language: English
Size: 35.9 MB
Votes: 006
Downloaded: 33
Category: Video
Format: MP3, FLAC
4.6

File list

  • Alexandra Stan - Thanks For Leaving [Music Video] 720p [Sbyky].mp4 (35.9 MB)

Alexandra Stan - Thanks for leaving - lyrics, versuri

Alexandra Stan - Thanks for leaving - lyrics, versuri


General
Complete name : Alexandra Stan - Thanks For Leaving [Music Video] 720p [Sbyky].mp4
Format : MPEG-4
Format profile : Base Media / Version 2
Codec ID : mp42
File size : 35.9 MiB
Duration : 4mn 6s
Overall bit rate mode : Variable
Overall bit rate : 1 221 Kbps
Encoded date : UTC 2014-04-27 00:22:31
Tagged date : UTC 2014-04-27 00:22:31
Video
ID : 1
Format : AVC
Format/Info : Advanced Video Codec
Format profile : [email protected]
Format settings, CABAC : Yes
Format settings, ReFrames : 1 frame
Codec ID : avc1
Codec ID/Info : Advanced Video Coding
Duration : 4mn 6s
Bit rate : 1 027 Kbps
Maximum bit rate : 2 204 Kbps
Width : 1 280 pixels
Height : 720 pixels
Display aspect ratio : 16:9
Frame rate mode : Constant
Frame rate : 25.000 fps
Color space : YUV
Chroma subsampling : 4:2:0
Bit depth : 8 bits
Scan type : Progressive
Bits/(Pixel*Frame) : 0.045
Stream size : 30.2 MiB (84%)
Tagged date : UTC 2014-04-27 00:22:34
Audio
ID : 2
Format : AAC
Format/Info : Advanced Audio Codec
Format profile : LC
Codec ID : 40
Duration : 4mn 6s
Bit rate mode : Variable
Bit rate : 192 Kbps
Maximum bit rate : 203 Kbps
Channel(s) : 2 channels
Channel positions : Front: L R
Sampling rate : 44.1 KHz
Compression mode : Lossy
Stream size : 5.65 MiB (16%)
Title : IsoMedia File Produced by Google, 5-11-2011
Encoded date : UTC 2014-04-27 00:22:33
Tagged date : UTC 2014-04-27 00:22:34
Shared By Sbyky

Related music:
Kim Cesarion - Undressed 720p Music Video download Kim Cesarion - Undressed 720p Music Video
Video
English
32.9 MB
4.4
/images/5/9/kim-cesarion-undressed-720p-music-video-.jpg
Fall Out Boy - Where Did The Party Go 720p Music Video download Fall Out Boy - Where Did The Party Go 720p Music Video
Video
English
46.7 MB
4.9
/images/5/7/fall-out-boy-where-did-the-party-go-720p-music-video-.jpg
Alexandra Stan - Thanks For Leaving 1080p Music Video download Alexandra Stan - Thanks For Leaving 1080p Music Video
Video
English
76.6 MB
4.5
/images/5/1/alexandra-stan-thanks-for-leaving-1080p-music-video-.jpg
Coldplay - Magic 720p Music Video download Coldplay - Magic 720p Music Video
Video
English
78.4 MB
4.2
/images/5/4/coldplay-magic-720p-music-video-.jpg
Arash Ft Helena - One Day 720p Music Video download Arash Ft Helena - One Day 720p Music Video
Video
English
43.6 MB
4.5
/images/5/3/arash-ft-helena-one-day-720p-music-video-.jpg
A$AP Rocky - Angels 720p Music Video download A$AP Rocky - Angels 720p Music Video
Video
English
66.0 MB
4.2
/images/5/2/a24ap-rocky-angels-720p-music-video-.jpg
Redlight King - Old Man 720p Music Video download Redlight King - Old Man 720p Music Video
Video
English
38.7 MB
4.4
/images/5/2/redlight-king-old-man-720p-music-video-.jpg
Alexandra Stan - Get Back 720p ASAP download Alexandra Stan - Get Back 720p ASAP
Video
English
64.5 MB
4.0
/images/5/4/alexandra-stan-get-back-720p-asap-.jpg