Files 42316
» » Katy Perry - Roar 1080p Music Video
Language: English
Size: 188.9 MB
Votes: 692
Downloaded: 40
Category: Video
Format: MP3, FLAC
4.0

File list

  • Katy Perry - Roar [Music Video] 1080p [Sbyky].mp4 (188.9 MB)

ukasz Gottwald, Max Martin, Cirkut, Bonnie McKee, Katy Perry.

Artist: Katy Perry Title: Roar Year: 2013 Source: Master Label Video Codec: ProRes 1080p. We have an extense video vault, and you can have it too, exchange videos with us. Only accept Best Quality sources like ProRes, DV, or High Bitrate Master Sources. Sample: Write to admincvidcollector. com if you want this video. Author adminPosted on June 14, 2018October 20, 2019Categories Katy PerryTags 2013, Katy Perry, Master Label, ProRes 1080p. Leave a Reply Cancel reply. Video Services like PromoOnly, ETV, or videos with TAG or Logo, encoded videos to mkv, etc, not accepted.

Katy Perry - Roar (Blu-Ray 1080p). Video ID : 4113 (0x1011) Menu ID : 1 (0x1) Format : AVC Format/Info : Advanced Video Codec Format profile : [email protected] Format settings, CABAC : Yes Format settings, ReFrames : 8 frames Codec ID : 27 Duration : 4mn 24s Bit rate mode : Variable Bit rate : 10 000 Kbps Maximum bit rate : 4. Mbps Width : 1 920 pixels Height : 1 080.

Video Music videos.

անրային Նորություններ.

Katy Perry - Roar (2013) 1080p HD English Video Song Free. Image - c-Video-HD-04. com 1024 x 576 jpeg 48kB. Katy Perry - Roar (VH1HD-1080i-DD2. 1920 x 1080 jpeg 213kB. com 900 x 922 jpeg 356kB. Katy Perry - Roar Deluxe. Music-HDTV 1080i-DD2. 1920 x 1080 png 4922kB. 1920 x 1080 jpeg 287kB.

Feedback :: Обратная Связь.


General
Complete name : Katy Perry - Roar [Music Video] 1080p [Sbyky].mp4
Format : MPEG-4
Format profile : Base Media / Version 2
Codec ID : mp42
File size : 189 MiB
Duration : 4mn 29s
Overall bit rate mode : Variable
Overall bit rate : 5 888 Kbps
Encoded date : UTC 2013-09-04 18:43:32
Tagged date : UTC 2013-09-04 18:43:32
Video
ID : 1
Format : AVC
Format/Info : Advanced Video Codec
Format profile : [email protected]
Format settings, CABAC : Yes
Format settings, ReFrames : 1 frame
Codec ID : avc1
Codec ID/Info : Advanced Video Coding
Duration : 4mn 29s
Bit rate : 5 694 Kbps
Maximum bit rate : 13.3 Mbps
Width : 1 920 pixels
Height : 1 080 pixels
Display aspect ratio : 16:9
Frame rate mode : Constant
Frame rate : 23.976 fps
Color space : YUV
Chroma subsampling : 4:2:0
Bit depth : 8 bits
Scan type : Progressive
Bits/(Pixel*Frame) : 0.115
Stream size : 183 MiB (97%)
Tagged date : UTC 2013-09-04 18:44:03
Audio
ID : 2
Format : AAC
Format/Info : Advanced Audio Codec
Format profile : LC
Codec ID : 40
Duration : 4mn 29s
Bit rate mode : Variable
Bit rate : 192 Kbps
Maximum bit rate : 202 Kbps
Channel(s) : 2 channels
Channel positions : Front: L R
Sampling rate : 44.1 KHz
Compression mode : Lossy
Stream size : 6.16 MiB (3%)
Title : IsoMedia File Produced by Google, 5-11-2011
Encoded date : UTC 2013-09-04 18:43:43
Tagged date : UTC 2013-09-04 18:44:03
Shared By Sbyky

Comments:
Downloaded
Downloaded
thanks
ᵀᴴᴱ ᴼᴿᴵᴳᴵᴻᴬᴸ
ᵀᴴᴱ ᴼᴿᴵᴳᴵᴻᴬᴸ
thanks
Frostdefender
Frostdefender
thanks
Related music:
John Mayer Ft Katy Perry - Who You Love 1080p Music Video download John Mayer Ft Katy Perry - Who You Love 1080p Music Video
Video
English
94.1 MB
4.4
/images/5/9/john-mayer-ft-katy-perry-who-you-love-1080p-music-video-.jpg
PSY - Gentleman 1080p Music Video download PSY - Gentleman 1080p Music Video
Video
English
145.3 MB
4.7
/images/5/2/psy-gentleman-1080p-music-video-.jpg
J Cole - Work Out 1080p Music Video download J Cole - Work Out 1080p Music Video
Video
English
153.3 MB
4.1
/images/5/3/j-cole-work-out-1080p-music-video-.jpg
Katy Perry Ft Migos - Bon Appétit 1080p Music Video download Katy Perry Ft Migos - Bon Appétit 1080p Music Video
Video
English
99.9 MB
4.7
/images/5/4/katy-perry-ft-migos-bon-appc3a9tit-1080p-music-video-.jpg
Little Mix - Little Me 1080p Music Video download Little Mix - Little Me 1080p Music Video
Video
English
74.7 MB
4.9
/images/5/1/little-mix-little-me-1080p-music-video-.jpg
Katy Perry - Birthday 1080p Music Video download Katy Perry - Birthday 1080p Music Video
Video
English
214.8 MB
4.2
/images/5/2/katy-perry-birthday-1080p-music-video-.jpg
INNA - Wow 1080p Music Video download INNA - Wow 1080p Music Video
Video
English
152.3 MB
4.0
/images/noimage.jpg
Wiz Khalifa Ft Akon - Let It Go 1080p Music Video download Wiz Khalifa Ft Akon - Let It Go 1080p Music Video
Video
English
117.5 MB
4.2
/images/5/6/wiz-khalifa-ft-akon-let-it-go-1080p-music-video-.jpg
Future - Honest 1080p Music Video download Future - Honest 1080p Music Video
Video
English
100.8 MB
4.3
/images/5/8/future-honest-1080p-music-video-.jpg