Files 42316
» » Charlie Puthumazhayai Song Video Dulquer Salmaan, Parvathy, Aparna Gopinath,Martin Prakkat Official 1080p K3NNY 2015
Language: Other
Size: 76.0 MB
Votes: 538
Downloaded: 27
Category: Video
Format: MP3, FLAC
4.7

File list

  • Charlie Puthumazhayai Song Video_Dulquer Salmaan, Parvathy, Aparna Gopinath,Martin Prakkat _Official.mp4 (76.0 MB)

Video ID : 1 Format : AVC Format/Info : Advanced Video Codec Format profile : Format settings, CABAC : Yes Format settings, ReFrames : 2 frames Codec ID : avc1 Codec ID/Info : Advanced Video Coding Duration : 3mn 2s Bit rate : 3 369 Kbps Width : 1 920 pixels Height : . .

Video ID : 1 Format : AVC Format/Info : Advanced Video Codec Format profile : Format settings, CABAC : Yes Format settings, ReFrames : 2 frames Codec . Charlie Malayalam 2015 Dulquer Salmaan.

Video ID : 1 Format : AVC Format/Info : Advanced Video Codec Format profile : Format settings, CABAC : Yes Format settings, ReFrames : 2 frames Codec ID : avc1 Codec ID/Info : Advanced Video Coding Duration : 3mn 2s Bit rate : 3 369 Kbps Width : 1 920 pixels Height : 1 080 pixels Display aspect ratio : 16:9 Frame rate mode : Constant Frame rate . Release name: Charlie (2015)Puthumazhayai Song Video Dulquer Salmaan, Parvathy, Aparna Gopinath,Martin Prakkat Official 1080p. Trackers: udp://tracker.

Смотреть Charlie Puthumazhayai Song Video Dulquer Salmaan, Parvathy, Aparna Gopinath, Martin Prakkat. Watch the Official Song Video of the Melodious Puthumazhayai From Charlie, a Malayalam Movie Starring Dulquer Salmaan, Parvathy, Aparna Gopinath.


Screens:-

Video
ID : 1
Format : AVC
Format/Info : Advanced Video Codec
Format profile : [email protected]
Format settings, CABAC : Yes
Format settings, ReFrames : 2 frames
Codec ID : avc1
Codec ID/Info : Advanced Video Coding
Duration : 3mn 2s
Bit rate : 3 369 Kbps
Width : 1 920 pixels
Height : 1 080 pixels
Display aspect ratio : 16:9
Frame rate mode : Constant
Frame rate : 24.000 fps
Color space : YUV
Chroma subsampling : 4:2:0
Bit depth : 8 bits
Scan type : Progressive
Bits/(Pixel*Frame) : 0.068
Stream size : 73.2 MiB (96%)
Color range : Limited
Color primaries : BT.709
Transfer characteristics : BT.709
Matrix coefficients : BT.709
Audio
ID : 2
Format : AAC
Format/Info : Advanced Audio Codec
Format profile : LC
Codec ID : 40
Duration : 3mn 2s
Bit rate mode : Constant
Bit rate : 126 Kbps
Channel(s) : 2 channels
Channel positions : Front: L R
Sampling rate : 44.1 KHz
Compression mode : Lossy
Stream size : 2.73 MiB (4%)

Related music:
Meri Zindagi VIDEO Song 1080p - Bhaag Johnny - Rahul Vaidya mp4 download Meri Zindagi VIDEO Song 1080p - Bhaag Johnny - Rahul Vaidya mp4
Video
Hindi
61.1 MB
4.1
/images/5/3/meri-zindagi-video-song-1080p-bhaag-johnny-rahul-vaidya-mp4.jpg
The Weeknd - The Hills 1080p mp4 download The Weeknd - The Hills 1080p mp4
Video
English
84.1 MB
4.7
/images/5/0/the-weeknd-the-hills-1080p-mp4.jpg
Ciara - I Bet 1080p mp4 download Ciara - I Bet 1080p mp4
Video
English
104.1 MB
4.3
/images/5/6/ciara-i-bet-1080p-mp4.jpg
Katy Perry Ft Migos - Bon Appétit 1080p Music Video download Katy Perry Ft Migos - Bon Appétit 1080p Music Video
Video
English
99.9 MB
4.7
/images/5/4/katy-perry-ft-migos-bon-appc3a9tit-1080p-music-video-.jpg
Saans Jab tak hai jaan 2012 1080p HD Mys download Saans Jab tak hai jaan 2012 1080p HD Mys
DVD
English
82.7 MB
4.5
/images/5/3/saans-jab-tak-hai-jaan-2012-1080p-hd-mys.jpg
Little Mix - Little Me 1080p Music Video download Little Mix - Little Me 1080p Music Video
Video
English
74.7 MB
4.9
/images/5/1/little-mix-little-me-1080p-music-video-.jpg
YG Ft DJ Mustard - Pop It, Shake It 1080p Music Video download YG Ft DJ Mustard - Pop It, Shake It 1080p Music Video
Video
English
110.0 MB
4.7
/images/5/9/yg-ft-dj-mustard-pop-it2c-shake-it-1080p-music-video-.jpg