Files 42316
» » Dr Dre Ft Eminem & Skylar Grey - I Need A Doctor 720p
Language: English
Size: 131.1 MB
Votes: 376
Downloaded: 30
Category: Video
Format: MP3, FLAC
4.1

File list

  • Dr. Dre Ft. Eminem & Skylar Grey - I Need A Doctor [Explicit] 720p [Sbyky].mp4 (131.1 MB)

I'm about to lose my mind You’ve been gone for so long I’m runnin' out of time I need a doctor, call me a doctor I need a doctor, doctor To bring me back to life.

I'm about to lose my mind You’ve been gone for so long I’m runnin' out of time I need a doctor, call me a doctor I need a doctor, doctor To bring me back to life.

Eminem & Grey Skylar – I Need A Doctor. D. re ft. Eminem, Skylar Grey – I Need A Doctor. dr dre feat eminem amp skylar grey – i need a doctor 2011 (emusic. Dr. Dre, 50 Cent – Encore. Dre&Skylar Grey – I Need A Doctor Feat. Разные исполнители – What's The Difference (Instrumental versio. :43. Dre x Eminem x Skylar Grey – I Need A Doctor. Funkmaster Flex, Big Kap feat.

IGA. Dre. Universal Music Group.

Find out at which radio station you can hear Dre - Dr. Dre feat. I Need a Doctor (feat. Eminem & Skylar Grey). Eminem & Skylar Grey - I Need a Doctor. Artist: Dr. Album: I Need a Doctor (feat. Eminem & Skylar Grey) - Single, 2011. Has been played on. Germany 56.

екст песни(слова) Eminem - I need a doctor (ft. Dre). I need a doctor Call me a doctor I need a doctor, doctor To bring me back to life

екст песни(слова) Eminem - I need a doctor (ft. Друзья! Обращаем Ваше внимание: чтобы правильно исправить текст песни, надо выделить как минимум два слова. I need a doctor Call me a doctor I need a doctor, doctor To bring me back to life. I told the World one day I would pay it back Say it on tape, and lay it, record it So that one day I could play it back But I donТt even know if I believe it when IТm saying that. YaТll starting to creep in, everyday its so grey and black Hope, I just need a ray of that Cause no one seeТs my vision when I play it for Сem They just say its wack.

Free download and listen Dr. Dre - I Need a Doctor (feat. Cover Guru - Dr. Eminem & Skylar Grey) 05:44. Dre - Kush (feat.


General
Complete name : Dr. Dre Ft. Eminem & Skylar Grey - I Need A Doctor [Explicit] 720p [Sbyky].mp4
Format : MPEG-4
Format profile : Base Media / Version 2
Codec ID : mp42
File size : 131 MiB
Duration : 7mn 36s
Overall bit rate mode : Variable
Overall bit rate : 2 408 Kbps
Encoded date : UTC 2013-04-08 09:27:06
Tagged date : UTC 2013-04-08 09:27:06
Video
ID : 1
Format : AVC
Format/Info : Advanced Video Codec
Format profile : [email protected]
Format settings, CABAC : Yes
Format settings, ReFrames : 1 frame
Codec ID : avc1
Codec ID/Info : Advanced Video Coding
Duration : 7mn 36s
Bit rate : 2 213 Kbps
Maximum bit rate : 9 608 Kbps
Width : 1 280 pixels
Height : 720 pixels
Display aspect ratio : 16:9
Frame rate mode : Constant
Frame rate : 23.976 fps
Color space : YUV
Chroma subsampling : 4:2:0
Bit depth : 8 bits
Scan type : Progressive
Bits/(Pixel*Frame) : 0.100
Stream size : 121 MiB (92%)
Tagged date : UTC 2013-04-08 09:35:30
Audio
ID : 2
Format : AAC
Format/Info : Advanced Audio Codec
Format profile : LC
Codec ID : 40
Duration : 7mn 36s
Bit rate mode : Variable
Bit rate : 192 Kbps
Maximum bit rate : 201 Kbps
Channel(s) : 2 channels
Channel positions : Front: L R
Sampling rate : 44.1 KHz
Compression mode : Lossy
Stream size : 10.5 MiB (8%)
Title : IsoMedia File Produced by Google, 5-11-2011
Encoded date : UTC 2013-04-08 09:32:21
Tagged date : UTC 2013-04-08 09:35:30
Shared By Sbyky

Related music:
Eminem Ft Rihanna - The Monster 720p download Eminem Ft Rihanna - The Monster 720p
Video
English
57.4 MB
4.9
/images/5/3/eminem-ft-rihanna-the-monster-720p-.jpg
50 Cent Ft Eminem & Adam Levine - My Life 720p Music Video download 50 Cent Ft Eminem & Adam Levine - My Life 720p Music Video
Video
English
38.4 MB
4.0
/images/5/2/50-cent-ft-eminem-26-adam-levine-my-life-720p-music-video-.jpg
2 Chainz - I'm Different 720p download 2 Chainz - I'm Different 720p
Video
English
76.5 MB
4.3
/images/5/0/2-chainz-i27m-different-720p-.jpg
Eminem - Rap God 1080p download Eminem - Rap God 1080p
Video
English
146.1 MB
4.9
/images/5/3/eminem-rap-god-1080p-.jpg
Eminem - Berzerk 720p download Eminem - Berzerk 720p
Video
English
97.3 MB
4.2
/images/5/9/eminem-berzerk-720p-.jpg
Eminem Ft Rihanna - The Monster 1080p download Eminem Ft Rihanna - The Monster 1080p
Video
English
108.0 MB
4.7
/images/5/3/eminem-ft-rihanna-the-monster-1080p-.jpg
John Legend - All Of Me 720p Music Video download John Legend - All Of Me 720p Music Video
Video
English
62.7 MB
4.1
/images/5/4/john-legend-all-of-me-720p-music-video-.jpg
2 Chainz Ft Cap 1 - Where U Been 720p download 2 Chainz Ft Cap 1 - Where U Been 720p
Video
English
84.8 MB
4.7
/images/5/6/2-chainz-ft-cap-1-where-u-been-720p-.jpg
Little Mix - Little Me 720p Music Video download Little Mix - Little Me 720p Music Video
Video
English
37.9 MB
4.1
/images/5/5/little-mix-little-me-720p-music-video-.jpg
Rihanna - Pour It Up 720p download Rihanna - Pour It Up 720p
Video
English
54.9 MB
4.7
/images/5/1/rihanna-pour-it-up-720p-.jpg