Files 42316
» » Lindsey Stirling Ft Lzzy Hale - Shatter Me 720p Music Video
Language: English
Size: 77.2 MB
Votes: 350
Downloaded: 35
Category: Video
Format: MP3, FLAC
4.4

File list

  • Lindsey Stirling Ft. Lzzy Hale - Shatter Me [Music Video] 720p [Sbyky].MP4 (77.2 MB)

Shatter Me. Исполнитель. Альбом Lindsey Stirling - Take Flight.

Shatter Me. Shatter Me. Лицензиар. Watch Over You - Alter Bridge ft. Lzzy Hale Manchester Arena 22/10/2013 HD - Продолжительность: 4:55 The Sensory Coach Recommended for you. 4:55.

lzzy hale lindsey stirling – shatter me featuring. Lindsey Stirling – Shatter Me ft Lzzy Hale. Danilevsky – Shatter Me. 3:31. Lindsey Stirling feat Lzzy Hale – Shatter me. 1:30.

Lindsey Stirling и Lzzy Hale в видеоклипе на сингл Shatter Me (2014). Виниловые пластинки Lindsey Stirling, Lzzy Hale. Lizzo - Jerome (Live at the 2019 American Music Awards) 2. 1. Lindsey Stirling feat. Lzzy Hale – Shatter Me. Lindsey Stirling и Lzzy Hale в видеоклипе на сингл Shatter Me (2014). Opeth - Universal Truth 2. The Temper Trap - Sweet Disposition (Blazy & Sighter Rmx) 2.

Lzzy Hale – Shatter Me онлайн или скачать mp3 в хорошем качестве 320 kbps на телефон (андроид . 3 Lindsey Stirling – Shatter Me ft Lzzy Hale. Lindsey Stirling – Shatter Me CUT feat Lzzy Hale.

Lzzy Hale – Shatter Me онлайн или скачать mp3 в хорошем качестве 320 kbps на телефон (андроид, айфон) вы можете на сайте YoSound. Lzzy Hale – Shatter Me - Cole Rolland (Guitar Remix). Линдси Стирлинг – Shatter Me feat Lzzy Hale. Lindsey Stirling(Shatter Me) – 04. Shatter Me feat Lzzy Hale. Lindsey Stirling ft Lzzy Hale – Shatter me. 4:49.

it/ShatterMe or exclusive deluxe version at Target: smarturl. shatter me lzzy hale halestorm lindsey stirling

it/ShatterMe or exclusive deluxe version at Target: smarturl. shatter me lzzy hale halestorm lindsey stirling. Released by: Lindseystomp Records. Gacha Boy 2112 at 1:22


General
Complete name : Lindsey Stirling Ft. Lzzy Hale - Shatter Me [Music Video] 720p [Sbyky].MP4
Format : MPEG-4
Format profile : Base Media / Version 2
Codec ID : mp42
File size : 77.2 MiB
Duration : 5mn 19s
Overall bit rate mode : Variable
Overall bit rate : 2 027 Kbps
Encoded date : UTC 2014-04-22 23:01:27
Tagged date : UTC 2014-04-22 23:01:27
Video
ID : 1
Format : AVC
Format/Info : Advanced Video Codec
Format profile : [email protected]
Format settings, CABAC : Yes
Format settings, ReFrames : 1 frame
Codec ID : avc1
Codec ID/Info : Advanced Video Coding
Duration : 5mn 19s
Bit rate : 1 832 Kbps
Maximum bit rate : 4 929 Kbps
Width : 1 280 pixels
Height : 720 pixels
Display aspect ratio : 16:9
Frame rate mode : Constant
Frame rate : 23.976 fps
Color space : YUV
Chroma subsampling : 4:2:0
Bit depth : 8 bits
Scan type : Progressive
Bits/(Pixel*Frame) : 0.083
Stream size : 69.8 MiB (90%)
Tagged date : UTC 2014-04-22 23:01:28
Audio
ID : 2
Format : AAC
Format/Info : Advanced Audio Codec
Format profile : LC
Codec ID : 40
Duration : 5mn 19s
Bit rate mode : Variable
Bit rate : 192 Kbps
Maximum bit rate : 201 Kbps
Channel(s) : 2 channels
Channel positions : Front: L R
Sampling rate : 44.1 KHz
Compression mode : Lossy
Stream size : 7.31 MiB (9%)
Title : IsoMedia File Produced by Google, 5-11-2011
Encoded date : UTC 2014-04-22 23:01:28
Tagged date : UTC 2014-04-22 23:01:28
Shared By Sbyky

Related music:
Kim Cesarion - Undressed 720p Music Video download Kim Cesarion - Undressed 720p Music Video
Video
English
32.9 MB
4.4
/images/5/9/kim-cesarion-undressed-720p-music-video-.jpg
Fall Out Boy - Where Did The Party Go 720p Music Video download Fall Out Boy - Where Did The Party Go 720p Music Video
Video
English
46.7 MB
4.9
/images/5/7/fall-out-boy-where-did-the-party-go-720p-music-video-.jpg
Alexandra Stan - Thanks For Leaving 720p Music Video download Alexandra Stan - Thanks For Leaving 720p Music Video
Video
English
35.9 MB
4.6
/images/5/1/alexandra-stan-thanks-for-leaving-720p-music-video-.jpg
Coldplay - Magic 720p Music Video download Coldplay - Magic 720p Music Video
Video
English
78.4 MB
4.2
/images/5/4/coldplay-magic-720p-music-video-.jpg
Arash Ft Helena - One Day 720p Music Video download Arash Ft Helena - One Day 720p Music Video
Video
English
43.6 MB
4.5
/images/5/3/arash-ft-helena-one-day-720p-music-video-.jpg
A$AP Rocky - Angels 720p Music Video download A$AP Rocky - Angels 720p Music Video
Video
English
66.0 MB
4.2
/images/5/2/a24ap-rocky-angels-720p-music-video-.jpg
Redlight King - Old Man 720p Music Video download Redlight King - Old Man 720p Music Video
Video
English
38.7 MB
4.4
/images/5/2/redlight-king-old-man-720p-music-video-.jpg
Lindsey Stirling Ft Lzzy Hale - Shatter Me 1080p Music Video download Lindsey Stirling Ft Lzzy Hale - Shatter Me 1080p Music Video
Video
English
143.7 MB
4.8
/images/5/3/lindsey-stirling-ft-lzzy-hale-shatter-me-1080p-music-video-.jpg