Files 42316
» » Mike Will Made It ft Miley Cyrus Juicy J 23 1080p HDTV-shadowCopy
Language: English
Size: 143.1 MB
Votes: 853
Downloaded: 32
Category: Video
Format: MP3, FLAC
4.8

File list

  • Mike.Will.Made.It.ft. Miley.Cyrus.Juicy.J.23.1080p.HDTV-shadowCopy.mp4 (137.0 MB)
  • vlcsnap (2).png (2.5 MB)
  • vlcsnap (3).png (1.9 MB)
  • vlcsnap (1).png (1.7 MB)
  • Mike.Will.Made.It.ft. Miley.Cyrus.Juicy.J.23.1080p.HDTV-shadowCopy.nfo (3.9 KB)

nfo 0 MB. vlcsnap (1. ng 2 MB.

nfo 0 MB. vlcsnap (2.

Home 2014 Январь 19 Mike Will Made-It ft. Miley Cyrus, Wiz Khalifa, Juicy J - 23 (2013). Mike Will Made-It ft. Miley Cyrus, Wiz Khalifa, Juicy J - 23. Video: MPEG4 Video (H264) 1920x1080 2. 76fps 8 371 Kbps Audio: AAC 48000Hz stereo 320kbps.

Featuring Juicy J, Miley Cyrus & Wiz Khalifa. Produced by P-Nasty & Mike WiLL Made-It. I stay showin' out, my kick game is a beast I got thirty pair of J's that ain't never been released Flu game 12, Space Jam 11's On the hype beast sick, they gon' need a paramedic Turn up, turn up, turn up, I get trippy, I stay live All this purple in my cup, match. them grape 5's I'm so high, I got three bitches that go bi I'm so fly, I'm gettin' head like a blow dryer.

Use a VPN to make yourself hidden while downloading torrents

VPN: GET VPN. Downloading torrents is getting riskier every day. Use a VPN to make yourself hidden while downloading torrents.

By Mike WiLL Made-It & P-Nazty]. 4 years ago4 years ag. .Mike WiLL Made-It Pro Unlimited. 198,498 followers198K. Follow Mike WiLL Made-It and others on SoundCloud.

Uploaded By shadowCopy. Downloads 191. Last checked May. 21st '18. Date uploaded Jun. 21st '14. Seeders 0.

You cannot download any of those files from here. 90 dias para casar em ingles é happily ever after 1s, pcm 1s, cougar town 0s, fonts 1s, french 0s, rick braun 1s, Office 2019 0s, The Case of Unfaithful Klara 0s, jamie oliver veg 1s, I COMMAND MY HEART 1s. 05s.




Format : MPEG-4
Format profile : Base Media
Codec ID : isom
File size : 137 MiB
Duration : 4mn 6s
Overall bit rate mode : Variable
Overall bit rate : 4 666 Kbps
Writing application : Lavf54.63.104
Video
ID : 1
Format : AVC
Format/Info : Advanced Video Codec
Format profile : [email protected]
Format settings, CABAC : Yes
Format settings, ReFrames : 4 frames
Codec ID : avc1
Codec ID/Info : Advanced Video Coding
Duration : 4mn 6s
Bit rate : 4 533 Kbps
Width : 1 920 pixels
Height : 1 088 pixels
Original height : 1 080 pixels
Display aspect ratio : 16:9
Original display aspect ratio : 16:9
Frame rate mode : Variable
Frame rate : 45.829 fps
Original frame rate : 25.000 fps
Minimum frame rate : 1.390 fps
Maximum frame rate : 50.040 fps
Color space : YUV
Chroma subsampling : 4:2:0
Bit depth : 8 bits
Scan type : MBAFF
Scan order : Top Field First
Bits/(Pixel*Frame) : 0.047
Stream size : 133 MiB (97%)
Audio
ID : 2
Format : AAC
Format/Info : Advanced Audio Codec
Format profile : HE-AAC / LC
Codec ID : 40
Duration : 4mn 6s
Bit rate mode : Variable
Bit rate : 127 Kbps
Maximum bit rate : 128 Kbps
Channel(s) : 2 channels
Channel positions : Front: L R
Sampling rate : 48.0 KHz / 24.0 KHz
Compression mode : Lossy
Stream size : 3.72 MiB (3%)
Language : English

Related music:
Afrojack - SummerThing! ft Mike Taylor Full HD 1080p - truHD HEVC download Afrojack - SummerThing! ft Mike Taylor Full HD 1080p - truHD HEVC
Video
English
62.8 MB
4.2
/images/5/0/afrojack-summerthing21-ft-mike-taylor-full-hd-1080p-truhd-hevc.jpg
Sevyn Streeter Ft Kid Ink - nEXt 1080p Music Video download Sevyn Streeter Ft Kid Ink - nEXt 1080p Music Video
Video
English
93.7 MB
4.4
/images/5/4/sevyn-streeter-ft-kid-ink-next-1080p-music-video-.jpg
Beyonce-xo HDTV 1080p-sc download Beyonce-xo HDTV 1080p-sc
Video
English
112.3 MB
4.4
/images/5/6/beyonce-xo-hdtv-1080p-sc.jpg
Ed Sheeran - The A Team 1080p HD - shadowCopy download Ed Sheeran - The A Team 1080p HD - shadowCopy
Video
English
150.8 MB
4.8
/images/5/4/ed-sheeran-the-a-team-1080p-hd-shadowcopy.jpg
Katy Perry - Birthday 1080p Music Video download Katy Perry - Birthday 1080p Music Video
Video
English
214.8 MB
4.2
/images/5/2/katy-perry-birthday-1080p-music-video-.jpg
Miley Cyrus - Party In The U S A 720p Music Video download Miley Cyrus - Party In The U S A 720p Music Video
Video
English
55.8 MB
4.5
/images/5/6/miley-cyrus-party-in-the-u-s-a-720p-music-video-.jpg
YG Ft DJ Mustard - Pop It, Shake It 1080p Music Video download YG Ft DJ Mustard - Pop It, Shake It 1080p Music Video
Video
English
110.0 MB
4.7
/images/5/9/yg-ft-dj-mustard-pop-it2c-shake-it-1080p-music-video-.jpg
Shakira - Empire 1080p Music Video download Shakira - Empire 1080p Music Video
Video
English
94.2 MB
4.1
/images/5/0/shakira-empire-1080p-music-video-.jpg
Spiller ft Sopphie Ellis Bextor - Groovejet 1080p HDTV download Spiller ft Sopphie Ellis Bextor - Groovejet 1080p HDTV
Video
English
129.0 MB
4.1
/images/5/7/spiller-ft-sopphie-ellis-bextor-groovejet-1080p-hdtv.jpg