Files 42316
» » Kesha - Cmon 2013 M4A+MP4 x264 VX 1080p
Language: English
Size: 70.9 MB
Votes: 569
Downloaded: 49
Category: Video
Format: MP3, FLAC
4.5

File list

  • Ke$ha - C'mon (1080p) x264 [VX] [P2PDL].mp4 (66.6 MB)
  • Ke$ha - C'mon.m4a (4.2 MB)
  • Cover.jpg (104.8 KB)
  • Info.nfo (9.9 KB)
  • Torrent downloaded from P2PDL.com.txt (0.0 KB)

Download Kesha - Cmon M4A+MP4 (1080p) x264 torrent or any other torrent from the Video Music videos

Download Kesha - Cmon M4A+MP4 (1080p) x264 torrent or any other torrent from the Video Music videos.

org Kesha - Cmon M4A+MP4 (1080p) x264 Video Music videos. com Kesha - Cmon 2013 M4A+MP4 (1080p) x264 Music. org Kesha - Cmon 2013 M4A+MP4 (1080p) x264 Movies. me Kesha - Cmon 2013 M4A+MP4 (1080p) x264 Other Misc. me Kesha - Cmon 2013 M4A+MP4 (1080p) x264 Music. info Kesha-Cmon-2013-M4A MP4-(1080p)-x264- Music.

a guest Feb 4th, 2013 19 Never. m4a 4 MB. Torrent downloaded from P2PDL.

song video song 1920xp video mp4 songs download hd video song mp4 download 1920xp hd. .

song video song 1920xp video mp4 songs download hd video song mp4 download 1920xp hd mp4 1920xp video free free hd movie video 1920xp video mp4 download hd mp4 1920xp video free hd movie video 1920x1080. 1080p video mp4 songs download free hd song song 1920xp video mp4 songs download hd song video song 1920xp video mp4 songs download free hd song movie song 1920xp video mp4 songs download hd 1920xp video songs hd 1920x1080.

Kesha - Cmon 2013 M4A+MP4 (1080p) x264 VX P2PDL Posted by VitaminX in Music Video

Kesha - Cmon 2013 M4A+MP4 (1080p) x264 VX P2PDL Posted by VitaminX in Music Video. 0. Casual Teen Sex SiteRip MP4 XXX No cream in a cafe shop Cmon I got some at home Ilona Joshua Posted by songoki2 in XXX Video. Casual Teen Sex SiteRip MP4 XXX You like hip hop baby Cmon Ill show you my moves Adriana Terry Posted by songoki2 in XXX Video.

Download Fireworks H264 UltraHD 3min Video Download Fireworks H264 UltraHD 30sec Video Download Fireworks H264 720p 30sec Video.

Thematically, Kesha sings about doing crazy things with her companion, running around and causing mayhem together. C'Mon peaked at on the Billboard Hot 100.

Saw you leaning against that old record machine Saw the name of your band written on the marquee It's a full moon tonight, so we getting rowdy Yeah, we getting rowdy Get-get-getting rowdy. Feeling like I'm a high schooler Sipping on a warm wine cooler Hot, 'cause the party don't stop I'm in a crop top, like I'm working at Hooter's We been keeping it PG But I wanna get a little frisky Come, give me some of that yum, like a lollipop Let me set you free. Thematically, Kesha sings about doing crazy things with her companion, running around and causing mayhem together.

Kesha Cmon (Mp3) (320 Kbps) audio music mp.

Kesha Cmon (Mp3) (320 Kbps) audio music mp3. 6 years8546 KB00. Kesha - CMon 128kps audio music mp3. 6 years3425 KB00. o discurso do rei 2010 1s, title: Resident 2017 S01E01 4s, hindi movies 1s, 自慰 1s, john wick 1 3s, The Ice Dragon reworked 0s, alita battle of the angels p 4s, title: Philip Dick Philip Kindred Dick Science Fic 0s, systool 2s, the poison rose 2019.


Kesha - Cmon 2013 M4A+MP4 (1080p) x264 [VX] [P2PDL]
1080p Full HD MP4 Video + 128 Kbps/VBR M4A Audio

Code:

General
Complete name : Ke$ha - C'mon (1080p) x264 [VX] [P2PDL].mp4
Format : MPEG-4
Format profile : Base Media / Version 2
Codec ID : mp42
File size : 66.6 MiB
Duration : 4mn 48s
Overall bit rate mode : Variable
Overall bit rate : 1 940 Kbps
Video
Format : AVC
Width : 1 920 pixels
Height : 1 080 pixels
Display aspect ratio : 16:9
Frame rate mode : Variable
Frame rate : 23.976 fps
Color space : YUV
Chroma subsampling : 4:2:0
Bit depth : 8 bits
Scan type : Progressive
Bits/(Pixel*Frame) : 0.036
Stream size : 61.9 MiB (93%)
Writing library : x264 core 128
Audio
Format : AAC
Bit rate mode : Variable
Bit rate : 128 Kbps
Channel(s) : 2 channels
Channel positions : Front: L R
Sampling rate : 48.0 KHz
Stream size : 4.39 MiB (7%)
Subtitles : No

Screens:


Thumbs:



Code:

Notes:
* Recommended to use latest version VLC Media Player.
* Install shark007 codecs in case of any kind of problem in playback (For non-VLC Media Player users).
* Alternatively, install Core AVC codecs, the fastest decoder that there is coupled with Community Center Codec Pack and play on Windows Media Player Classic.
Greets to: VYTO, a2zRG, MusiK_KinG, Kuroyukihime, Caveman, Ash968, Neon, Masta, TorDigger and staff members at ExtraTorrent, TPB, H33T, KAT, , PublicHD, Ahashare, TorrentMafia, Limetorrents, BTScene, P2PDL, and all others
Encoder Notes: Looking For Early Access To Anything You Can Provide DVDScr, R5, DVDRips, BluRay, Direct Audio, Early Music
Releases, Seedboxes, Links, Dedicated Servers anything u can provide, Advance / Promo CDs/DVDs. If You Got anything to
offer contact me at "[email protected]"

Related music:
Alicia Keys - Brand New Me x264 VX 1080p download Alicia Keys - Brand New Me x264 VX 1080p
Video
English
46.7 MB
4.3
/images/5/5/alicia-keys-brand-new-me-x264-vx-1080p.jpg
Example - Perfect Replacement x264 VX 1080p download Example - Perfect Replacement x264 VX 1080p
Video
English
47.7 MB
4.5
/images/5/1/example-perfect-replacement-x264-vx-1080p.jpg
Armin Van Buuren - Waiting For The Night 2013 M4A+MP4 x264 VX Ft. Fiora 1080p download Armin Van Buuren - Waiting For The Night 2013 M4A+MP4 x264 VX Ft. Fiora 1080p
Video
English
41.6 MB
4.4
/images/5/7/armin-van-buuren-waiting-for-the-night-2013-m4a2bmp4-x264-vx-ft-fiora-1080p.jpg
Trey Songz - Never Again x264 VX 1080p download Trey Songz - Never Again x264 VX 1080p
Video
English
42.3 MB
4.1
/images/5/3/trey-songz-never-again-x264-vx-1080p.jpg
Rita Ora - Radioactive x264 VX 1080p download Rita Ora - Radioactive x264 VX 1080p
Video
English
47.5 MB
4.8
/images/5/9/rita-ora-radioactive-x264-vx-1080p.jpg
2 Chainz - Im Different x264 VX 1080p download 2 Chainz - Im Different x264 VX 1080p
Video
English
41.7 MB
4.3
/images/5/8/2-chainz-im-different-x264-vx-1080p.jpg
Taylor Swift - 22 2013 M4A+MP4 x264 VX 1080p download Taylor Swift - 22 2013 M4A+MP4 x264 VX 1080p
Video
English
40.3 MB
4.1
/images/5/5/taylor-swift-22-2013-m4a2bmp4-x264-vx-1080p.jpg