Files 42316
» » 50 Cent - Can't Help Myself 1080p I'm Hood
Language: English
Size: 95.7 MB
Votes: 928
Downloaded: 14
Category: Video
Format: MP3, FLAC
4.6

File list

  • 50 Cent - Can't Help Myself [I'm Hood] 1080p [Sbyky].mp4 (95.7 MB)

50 Cent, Cashis, Lloyd Banks - You Don't Know (Official Video) - Продолжительность: 4:25 EminemMusic Recommended for you. 4:25.

50 Cent, Cashis, Lloyd Banks - You Don't Know (Official Video) - Продолжительность: 4:25 EminemMusic Recommended for you. Best Action Jet Li Hollywood Movies - Latest Kong Fu Tiger Films HD - Продолжительность: 1:36:23 jack meow Recommended for you. 1:36:23. Invicto 3: La Redención - Yuri Boyka Vs Dolor (Combate Final) - Продолжительность: 6:53 FABER ALEXANDER MOLINA BOLAÑOS Recommended for you.

Produced by SlimmGemm. I'm hood, I'm so hood, I'm ghetto like a motherfucker I'm hood, I'm so hood, I'm ghetto like a motherfucker. Can’t Help Myself Lyrics. I had a five hundred bags, 14 grams of powder On the phone with my connect, this shit last about an hour I need work, I repeat, I need work My niggas go bizzurk, when the drought come get murked' When no money coming in is when the guns come out Why the d's wanna sit in front of my.

50 Cent - Can't Help Myself (I'm Hood) (Official Music Video). G-Unit - Nah I'm Talking Bout (Official Video).

Jump to. Sections of this page. 90s Hip HopVideos50 Cent - Can't Help Myself (I'm Hood). Press alt +, to open this menu.

Если вы не забываете 50 Cent, то и 50 Cent не забывает вас. Клип с микстейпа 2012-го года "Lost Tapes". 50 Cent исполнил песню из сериала Power под аккомпанемент оркестра и хора. 2. Эпичный концерт Eminem с Dr. Dre и 50 Cent – однозначно лучшее видео дня. 5.

10 Can't Help Falling In Love. If the content above is not authorized, please contact us via contactp2bt.

50 Cent’s new album is still awaiting a release date, but he keeps churning out the visuals. Curtis takes it back to the ‘hood in the video for Can’t Help Myself (I’m Hood), a cut off his DJ Drama-hosted mixtape The Lost Tape, which was released in May of last year

50 Cent’s new album is still awaiting a release date, but he keeps churning out the visuals. Curtis takes it back to the ‘hood in the video for Can’t Help Myself (I’m Hood), a cut off his DJ Drama-hosted mixtape The Lost Tape, which was released in May of last year. I’m hood, I’m so hood/ I’m ghetto like a motherfu er, boasts 50 as he pushes weight in the projects. See 50 get his hustle on in the gritty clip.


General
Complete name : 50 Cent - Can't Help Myself [I'm Hood] 1080p [Sbyky].mp4
Format : MPEG-4
Format profile : Base Media / Version 2
Codec ID : mp42
File size : 95.7 MiB
Duration : 3mn 5s
Overall bit rate mode : Variable
Overall bit rate : 4 327 Kbps
Encoded date : UTC 2013-09-10 21:55:57
Tagged date : UTC 2013-09-10 21:55:57
Video
ID : 1
Format : AVC
Format/Info : Advanced Video Codec
Format profile : [email protected]
Format settings, CABAC : Yes
Format settings, ReFrames : 1 frame
Codec ID : avc1
Codec ID/Info : Advanced Video Coding
Duration : 3mn 5s
Bit rate : 4 132 Kbps
Maximum bit rate : 7 769 Kbps
Width : 1 920 pixels
Height : 1 080 pixels
Display aspect ratio : 16:9
Frame rate mode : Constant
Frame rate : 30.000 fps
Color space : YUV
Chroma subsampling : 4:2:0
Bit depth : 8 bits
Scan type : Progressive
Bits/(Pixel*Frame) : 0.066
Stream size : 91.4 MiB (95%)
Tagged date : UTC 2013-09-10 21:56:03
Audio
ID : 2
Format : AAC
Format/Info : Advanced Audio Codec
Format profile : LC
Codec ID : 40
Duration : 3mn 5s
Bit rate mode : Variable
Bit rate : 192 Kbps
Maximum bit rate : 204 Kbps
Channel(s) : 2 channels
Channel positions : Front: L R
Sampling rate : 44.1 KHz
Compression mode : Lossy
Stream size : 4.25 MiB (4%)
Title : IsoMedia File Produced by Google, 5-11-2011
Encoded date : UTC 2013-09-10 21:56:01
Tagged date : UTC 2013-09-10 21:56:03
Shared By Sbyky

Related music:
PSY - Gentleman 1080p Music Video download PSY - Gentleman 1080p Music Video
Video
English
145.3 MB
4.7
/images/5/2/psy-gentleman-1080p-music-video-.jpg
Ace Hood Ft Future & Rick Ross - Bugatti 1080p download Ace Hood Ft Future & Rick Ross - Bugatti 1080p
Video
English
183.0 MB
4.8
/images/5/2/ace-hood-ft-future-26-rick-ross-bugatti-1080p-.jpg
J Cole - Work Out 1080p Music Video download J Cole - Work Out 1080p Music Video
Video
English
153.3 MB
4.1
/images/5/3/j-cole-work-out-1080p-music-video-.jpg
Little Mix - Little Me 1080p Music Video download Little Mix - Little Me 1080p Music Video
Video
English
74.7 MB
4.9
/images/5/1/little-mix-little-me-1080p-music-video-.jpg
INNA - Wow 1080p Music Video download INNA - Wow 1080p Music Video
Video
English
152.3 MB
4.0
/images/noimage.jpg
Wiz Khalifa Ft Akon - Let It Go 1080p Music Video download Wiz Khalifa Ft Akon - Let It Go 1080p Music Video
Video
English
117.5 MB
4.2
/images/5/6/wiz-khalifa-ft-akon-let-it-go-1080p-music-video-.jpg
Stromae - Papaoutai 1080p Music Video download Stromae - Papaoutai 1080p Music Video
Video
French
83.4 MB
4.5
/images/5/3/stromae-papaoutai-1080p-music-video-.jpg
2 Chainz Ft Cap 1 - Where U Been 1080p download 2 Chainz Ft Cap 1 - Where U Been 1080p
Video
English
167.6 MB
4.7
/images/5/5/2-chainz-ft-cap-1-where-u-been-1080p-.jpg
50 Cent Ft Joe - Big Rich Town 1080p Music Video download 50 Cent Ft Joe - Big Rich Town 1080p Music Video
Video
English
72.7 MB
4.3
/images/5/7/50-cent-ft-joe-big-rich-town-1080p-music-video-.jpg