Files 42316
» » Avril Lavigne - Hello Kitty 720p Music Video
Language: English
Size: 54.8 MB
Votes: 702
Downloaded: 41
Category: Video
Format: MP3, FLAC
4.5

File list

  • Avril Lavigne - Hello Kitty [Music Video] 720p [Sbyky].MP4 (54.8 MB)

Hello Kitty (оригинал Avril Lavigne). Hello Kitty, ypu're so silly! Привет, киска, ты такая глупенькая! Wake up, got a secret

Hello Kitty (оригинал Avril Lavigne). Привет, киска! (перевод Лина Болотова). Hello Kitty, ypu're so silly! Привет, киска, ты такая глупенькая! Wake up, got a secret

The Avril Lavigne Foundation. Previous PostPrevious.

The Avril Lavigne Foundation. Let Me Go Ft. Chad Kroeger. Next PostNext Rock N Roll.

Новый клип Avril Lavigne на песню Hello Kitty из альбома Avril Lavigne (2013). Lizzo - Jerome (Live at the 2019 American Music Awards) 2. 1. Opeth - Universal Truth 2. The Temper Trap - Sweet Disposition (Blazy & Sighter Rmx) 2.

Avril Lavigne - Hello Kitty. History File history.

Avril lavigne, Аврил Лавин. Avril Lavigne Hello Kitty at Zepp Nagoya 2014. Participante de 'Super Star K' canta 'Hello Kitty' de Avril Lavigne. Avril lavigne, Аврил Лавин.


General
Complete name : Avril Lavigne - Hello Kitty [Music Video] 720p [Sbyky].MP4
Format : MPEG-4
Format profile : Base Media
Codec ID : isom
File size : 54.8 MiB
Duration : 3mn 18s
Overall bit rate mode : Variable
Overall bit rate : 2 313 Kbps
Encoded date : UTC 2014-04-20 21:41:37
Tagged date : UTC 2014-04-20 21:41:37
Video
ID : 1
Format : AVC
Format/Info : Advanced Video Codec
Format profile : [email protected]
Format settings, CABAC : Yes
Format settings, ReFrames : 3 frames
Codec ID : avc1
Codec ID/Info : Advanced Video Coding
Duration : 3mn 18s
Bit rate : 2 183 Kbps
Width : 1 280 pixels
Height : 720 pixels
Display aspect ratio : 16:9
Frame rate mode : Variable
Frame rate : 23.976 fps
Minimum frame rate : 23.974 fps
Maximum frame rate : 24.590 fps
Color space : YUV
Chroma subsampling : 4:2:0
Bit depth : 8 bits
Scan type : Progressive
Bits/(Pixel*Frame) : 0.099
Stream size : 51.8 MiB (94%)
Encoded date : UTC 2014-04-20 21:41:37
Tagged date : UTC 2014-04-20 21:41:37
Audio
ID : 2
Format : AAC
Format/Info : Advanced Audio Codec
Format profile : LC
Codec ID : 40
Duration : 3mn 18s
Bit rate mode : Variable
Bit rate : 126 Kbps
Channel(s) : 2 channels
Channel positions : Front: L R
Sampling rate : 44.1 KHz
Compression mode : Lossy
Stream size : 2.98 MiB (5%)
Encoded date : UTC 2014-04-20 21:41:30
Tagged date : UTC 2014-04-20 21:41:30
Shared By Sbyky

Related music:
Agnez Mo Ft Timbaland & T I - Coke Bottle 720p Music Video download Agnez Mo Ft Timbaland & T I - Coke Bottle 720p Music Video
Video
English
70.6 MB
4.4
/images/5/6/agnez-mo-ft-timbaland-26-t-i-coke-bottle-720p-music-video-.jpg
Iggy Azalea Ft Rita Ora - Black Widow 720p Music Video download Iggy Azalea Ft Rita Ora - Black Widow 720p Music Video
Video
English
49.2 MB
4.5
/images/5/1/iggy-azalea-ft-rita-ora-black-widow-720p-music-video-.jpg
Fall Out Boy - Where Did The Party Go 720p Music Video download Fall Out Boy - Where Did The Party Go 720p Music Video
Video
English
46.7 MB
4.9
/images/5/7/fall-out-boy-where-did-the-party-go-720p-music-video-.jpg
Avril Lavigne - Rock N Roll 720p Music Video download Avril Lavigne - Rock N Roll 720p Music Video
Video
English
77.8 MB
4.0
/images/5/2/avril-lavigne-rock-n-roll-720p-music-video-.jpg
Avril Lavigne - Here's To Never Growing Up 720p Music Video download Avril Lavigne - Here's To Never Growing Up 720p Music Video
Video
English
83.0 MB
4.0
/images/5/8/avril-lavigne-here27s-to-never-growing-up-720p-music-video-.jpg
Avril Lavigne Ft Chad Kroeger - Let Me Go 1080p Music Video download Avril Lavigne Ft Chad Kroeger - Let Me Go 1080p Music Video
Video
English
109.4 MB
4.7
/images/5/4/avril-lavigne-ft-chad-kroeger-let-me-go-1080p-music-video-.jpg
Katy Perry Ft Juicy J - Dark Horse 720p Music Video download Katy Perry Ft Juicy J - Dark Horse 720p Music Video
Video
English
55.1 MB
4.8
/images/5/9/katy-perry-ft-juicy-j-dark-horse-720p-music-video-.jpg
50 Cent Ft Kidd Kidd - Everytime I Come Around 720p download 50 Cent Ft Kidd Kidd - Everytime I Come Around 720p
Video
English
51.9 MB
4.9
/images/5/0/50-cent-ft-kidd-kidd-everytime-i-come-around-720p-.jpg