Files 42316
» » Katy Perry - Birthday 1080p Music Video
Language: English
Size: 214.8 MB
Votes: 954
Downloaded: 16
Category: Video
Format: MP3, FLAC
4.2

File list

  • Katy Perry - Birthday [Music Video] 1080p [Sbyky].MP4 (214.8 MB)

Show all. In collections. Uploaded by RafaelRumi on January 7, 2018.

Show all. SIMILAR ITEMS (based on metadata).

Katy Perry's Birthday video is weird. In her latest video, Katy Perry is transformed into the world's worst birthday entertainers, dressing up in old-face, as a bad Jewish comedian, and a clown - playing on the tropes anyone who has ever attended a Bar Mitzvah might recognize. Katy Perry, also, is weird.

Birthday" is a disco song recorded by American singer Katy Perry for her fourth studio album, Prism (2013). She co-wrote the song with Bonnie McKee and its producers Dr. Luke, Max Martin, and Cirkut. Critics, as well as Perry herself, have compared the track to the music of Prince and Mariah Carey.

Mega This Is How We Do 11. Unconditionally 12. Who You Love feat

This Is How We Do 11. Who You Love feat. Katy Perry 13. Wide Awake - VEVO 1080p - 1. Firework 2. Hot N Cold 3. I Kissed A Girl 4. If We Ever See Again 5. Thinking Of You (Extended) 6. Thinking Of You 7. Ur So Gay 8. Waking Up In Vegas. Hidden Content: You must reply before you can see the hidden data contained here.


General
Complete name : Katy Perry - Birthday [Music Video] 1080p [Sbyky].MP4
Format : MPEG-4
Format profile : Base Media
Codec ID : isom
File size : 215 MiB
Duration : 8mn 0s
Overall bit rate mode : Variable
Overall bit rate : 3 748 Kbps
Encoded date : UTC 2014-04-23 13:59:33
Tagged date : UTC 2014-04-23 13:59:33
Video
ID : 1
Format : AVC
Format/Info : Advanced Video Codec
Format profile : [email protected]
Format settings, CABAC : Yes
Format settings, ReFrames : 2 frames
Codec ID : avc1
Codec ID/Info : Advanced Video Coding
Duration : 8mn 0s
Bit rate : 3 618 Kbps
Width : 1 920 pixels
Height : 1 080 pixels
Display aspect ratio : 16:9
Frame rate mode : Variable
Frame rate : 23.976 fps
Minimum frame rate : 23.974 fps
Maximum frame rate : 24.291 fps
Color space : YUV
Chroma subsampling : 4:2:0
Bit depth : 8 bits
Scan type : Progressive
Bits/(Pixel*Frame) : 0.073
Stream size : 207 MiB (97%)
Encoded date : UTC 2014-04-23 13:59:33
Tagged date : UTC 2014-04-23 13:59:33
Audio
ID : 2
Format : AAC
Format/Info : Advanced Audio Codec
Format profile : LC
Codec ID : 40
Duration : 8mn 0s
Bit rate mode : Variable
Bit rate : 126 Kbps
Channel(s) : 2 channels
Channel positions : Front: L R
Sampling rate : 44.1 KHz
Compression mode : Lossy
Stream size : 7.20 MiB (3%)
Encoded date : UTC 2014-04-23 13:59:29
Tagged date : UTC 2014-04-23 13:59:29
Shared By Sbyky

Related music:
Sevyn Streeter Ft Kid Ink - nEXt 1080p Music Video download Sevyn Streeter Ft Kid Ink - nEXt 1080p Music Video
Video
English
93.7 MB
4.4
/images/5/4/sevyn-streeter-ft-kid-ink-next-1080p-music-video-.jpg
Katy Perry Ft Migos - Bon Appétit 1080p Music Video download Katy Perry Ft Migos - Bon Appétit 1080p Music Video
Video
English
99.9 MB
4.7
/images/5/4/katy-perry-ft-migos-bon-appc3a9tit-1080p-music-video-.jpg
One Direction - You & I 1080p Music Video download One Direction - You & I 1080p Music Video
Video
English
111.1 MB
4.5
/images/5/5/one-direction-you-26-i-1080p-music-video-.jpg
Katy Perry Ft Juicy J - Dark Horse 720p Music Video download Katy Perry Ft Juicy J - Dark Horse 720p Music Video
Video
English
55.1 MB
4.8
/images/5/9/katy-perry-ft-juicy-j-dark-horse-720p-music-video-.jpg
Shakira - Empire 1080p Music Video download Shakira - Empire 1080p Music Video
Video
English
94.2 MB
4.1
/images/5/0/shakira-empire-1080p-music-video-.jpg
50 Cent Ft Joe - Big Rich Town 1080p Music Video download 50 Cent Ft Joe - Big Rich Town 1080p Music Video
Video
English
72.7 MB
4.3
/images/5/7/50-cent-ft-joe-big-rich-town-1080p-music-video-.jpg
Beyoncé - Pretty Hurts 1080p Music Video download Beyoncé - Pretty Hurts 1080p Music Video
Video
English
178.5 MB
4.2
/images/5/4/beyoncc3a9-pretty-hurts-1080p-music-video-.jpg
Priyanka Chopra - I Can't Make You Love Me 1080p Music Video download Priyanka Chopra - I Can't Make You Love Me 1080p Music Video
Video
English
112.8 MB
4.0
/images/5/3/priyanka-chopra-i-can27t-make-you-love-me-1080p-music-video-.jpg