Files 42316
» » Rita Ora - Radioactive x264 VX 1080p
Language: English
Size: 47.5 MB
Votes: 494
Downloaded: 99
Category: Video
Format: MP3, FLAC
4.8

File list

  • Rita Ora - Radioactive (1080p) x264 [VX] [P2PDL].mp4 (42.3 MB)
  • Rita Ora - Radioactive.m4a (5.1 MB)
  • Cover.jpg (150.3 KB)
  • Info.nfo (12.1 KB)
  • Torrent downloaded from P2PDL.com.txt (0.0 KB)

Radioactive (оригинал Rita Ora). Радиоактивный (перевод Тимон). Drop the bomb, let me feel the beat. Брось бомбу, дай мне ощутить ритм! This club's radioactive.

Radioactive (оригинал Rita Ora). Этот клуб радиоактивный, Drop the bomb, let me feel the beat.

Rita Ora- "Radioactive". Sounds Good - Radioactive Sing My Song Vol 20, 2014 04:09. The Original Hit Makers - Radioactive (Made Famous By Rita Ora) Sing It Like an Idol: Radio Beat, 2014 04:13. Metro karaoke - Radioactive (In the Style of Rita Ora) Karaoke Songlist: 2013, Vol. 2, 2013 04:16. Zoom Karaoke - Radioactive Zoom Karaoke Party, Vol. 296, 2014 04:12. Ameritz Top Tracks - Radioactive (In the Style of Rita Ora) Karaoke - Pop Princesses, Vol. 3, 2014 04:16. New Tribute Kings - Radioactive It's the Hits 2013 Vol. 1, 2013 04:11

Rita Ora ‎– Radioactive. Label: Roc Nation ‎– none.

Electronic 14,971,465. Funk, Soul 4,864,467. Rita Ora ‎– Radioactive. Format: File, AAC, Single, 256 kbps.

Rita Ora Radioactive 2012 Music Video 1080p x264 P2PDL. 1080p Full HD MP4 Video +. 128 Kbps/VBR M4A Audio

Rita Ora Radioactive 2012 Music Video 1080p x264 P2PDL. Uploaded: 2012-12-13 10:38:28 GMT. By: Vitamin X. 128 Kbps/VBR M4A Audio. library : x264 core 128.

Music video by RITA ORA performing Radioactive.

The GIF dimensions 500 x 229px was uploaded by anonymous user. Download most popular gifs roc, on GIFER. GIF Dimensions: 500 x 229 px.

Rita Ora - Radioactive - Remixes 7. MB. Cher Lloyd - Oath (Ft. Becky G. .

com Rita Ora - Radioactive {M4A+MP4} (1080p) x264 . 7 years. to Rita Ora - Radioactive {M4A+MP4} (1080p) x264 Music Video. org Rita Ora - Radioactive {M4A+MP4} (1080p) x264 Video Music videos. com Rita Ora - Radioactive (1080p) x264 Music. org Rita Ora - Radioactive {M4A+MP4} (1080p) x264 Other.

Stream Radioactive by Rita Ora from desktop or your mobile device. 7 years ago 7 years ago.


Release Title: Rita Ora - Radioactive
1080p Full HD MP4 Video
+
128 Kbps/VBR M4A Audio

Code:

General
Complete name : Rita Ora - Radioactive (1080p) x264 [VX] [P2PDL].mp4
Format : MPEG-4
Format profile : Base Media / Version 2
Codec ID : mp42
File size : 42.3 MiB
Duration : 4mn 21s
Video
ID : 1
Format : AVC
Format/Info : Advanced Video Codec
Width : 1 920 pixels
Height : 1 080 pixels
Display aspect ratio : 16:9
Frame rate mode : Variable
Frame rate : 23.976 fps
Color space : YUV
Chroma subsampling : 4:2:0
Bit depth : 8 bits
Scan type : Progressive
Bits/(Pixel*Frame) : 0.025
Stream size : 38.2 MiB (90%)
Writing library : x264 core 128
Audio
ID : 2
Format : AAC
Format/Info : Advanced Audio Codec
Format profile : LC
Codec ID : 40
Duration : 4mn 21s
Bit rate mode : Variable
Bit rate : 125 Kbps
Maximum bit rate : 287 Kbps
Channel(s) : 2 channels
Channel positions : Front: L R
Sampling rate : 48.0 KHz
Compression mode : Lossy
Stream size : 3.90 MiB (9%)
Subtitles : No

Screens:


Thumbs:


Code:

Notes:
* Recommended to use latest version VLC Media Player.
* Install shark007 codecs in case of any kind of problem in playback (For non-VLC Media Player users).
* Alternatively, install Core AVC codecs, the fastest decoder that there is coupled with Community Center Codec Pack and play on Windows Media Player Classic.
Greets to: VYTO, a2zRG, staff members at ExtraTorrent, TPB, H33T, KAT, , PublicHD, Ahashare, TorrentMafia, BTScene, P2PDL, and all others
Encoder Notes: Looking For Early Access To Anything You Can Provide DVDScr, R5, DVDRips, BluRay, Direct Audio, Early Music
Releases, Seedboxes, Links, Dedicated Servers anything u can provide, Advance / Promo CDs/DVDs. If You Got anything to
offer contact me at "[email protected]"


Related music:
PSY - Gentleman 1080p Music Video download PSY - Gentleman 1080p Music Video
Video
English
145.3 MB
4.7
/images/5/2/psy-gentleman-1080p-music-video-.jpg
Sevyn Streeter Ft Kid Ink - nEXt 1080p Music Video download Sevyn Streeter Ft Kid Ink - nEXt 1080p Music Video
Video
English
93.7 MB
4.4
/images/5/4/sevyn-streeter-ft-kid-ink-next-1080p-music-video-.jpg
J Cole - Work Out 1080p Music Video download J Cole - Work Out 1080p Music Video
Video
English
153.3 MB
4.1
/images/5/3/j-cole-work-out-1080p-music-video-.jpg
Saans Jab tak hai jaan 2012 1080p HD Mys download Saans Jab tak hai jaan 2012 1080p HD Mys
DVD
English
82.7 MB
4.5
/images/5/3/saans-jab-tak-hai-jaan-2012-1080p-hd-mys.jpg
Wiz Khalifa Ft Akon - Let It Go 1080p Music Video download Wiz Khalifa Ft Akon - Let It Go 1080p Music Video
Video
English
117.5 MB
4.2
/images/5/6/wiz-khalifa-ft-akon-let-it-go-1080p-music-video-.jpg
Stromae - Papaoutai 1080p Music Video download Stromae - Papaoutai 1080p Music Video
Video
French
83.4 MB
4.5
/images/5/3/stromae-papaoutai-1080p-music-video-.jpg
Shakira - Empire 1080p Music Video download Shakira - Empire 1080p Music Video
Video
English
94.2 MB
4.1
/images/5/0/shakira-empire-1080p-music-video-.jpg
One Direction - Midnight Memories X264 1080p TonyStark download One Direction - Midnight Memories X264 1080p TonyStark
Video
English
101.3 MB
4.4
/images/5/5/one-direction-midnight-memories-x264-1080p-tonystark.jpg