Files 42316
» » Wale Ft Nicki Minaj & Juicy J - Clappers 720p
Language: English
Size: 103.6 MB
Votes: 525
Downloaded: 37
Category: Video
Format: MP3, FLAC
4.0

File list

  • Wale Ft. Nicki Minaj & Juicy J - Clappers [Explicit] 720p [Sbyky].MP4 (103.6 MB)

Nicki Minaj, Juicy J. 05:17.

Nicki Minaj, Juicy J. Download MP3. MP3 320Kbps, 1. Mb MP3 128Kbps, . 4 Mb. Wale feat. Nicki Minaj, Juicy J. MP3 320Kbps.

Wale Ft. Nicki Minaj & Juicy J – Clappers. Nicki Minaj & Juicy J – Clappers (DJ SLICK Extended Mix). Wale x Juicy J x Nicki Minaj – Clappers. Wale & Nicki Minaj & Juicy J – Clapper (Dotcom). Fucking Music – Clappers feat Nicki Minaj & Juicy J. 5:17. Wale – Clappers feat Nicki Minaj & Juicy J. 1:35. TheMillionz, Krisis, Wiz Khalifa, Juicy J, A Rocky, Schoolboy Q, Currency, Big KRIT, Jackie Chain, Bun-B, Drake, Lil Wayne, Nicki Minaj, SBTRKT, Ellie Gouldine, Kaskade, Wale, Rick Ross, Young Jeezy, Soulja Boi, J. Cole, Missy Elliott, Chris Brown, Big – Big Krit-Temptations.

Clappers to the front, got a backwood full of skunk Got a white boy with the funnel gentrifying, that's .

Clappers to the front, got a backwood full of skunk Got a white boy with the funnel gentrifying, that's whats up! Look, clappers to the front, all you niggas got the skumps Now she finna bust it loose, screaming rest in peace to Chuck It's that DMV, we up at KOD And I can CC you these CC's But don't be OC. Shout out to that cellulite Got a real bad bitch that will sell you white Got another bad bitch that will sex you right Got a couple hoodrats on Section 8 Make a nigga cum, don’t procrastinate Ass on 5-0 come crack the case Got ass . .

Слушать и скачать песню Wale, Nicki Minaj, Juicy J. - Clappers можно онлайн на нашем портале MuZu

Слушать и скачать песню Wale, Nicki Minaj, Juicy J. - Clappers можно онлайн на нашем портале MuZu. me Текст и видео клип на песню Clappers. Clappers to the front, got a full of scum Now she finna bust it loose, screaming rest in peace to Chuck It’s that DMV, at the KOD And I can CC you these CC’s But don’t be OC Shout out to that cellulite Got a real bad bitch that’ll sell you white Got another bad bitch that’ll sex. you right Got a couple hoodrats on Section 8 Make a nigga cum, don’t procrastinate Ass saw a 5−0 come crack the case Got ass for days, come activate This ass on fire evacuate Throw that ass in the air, evaporate Where your money little bitch?

Nicki Minaj & Juicy J) - Wale. Nicki Minaj & Juicy J). Artist: Wale. Album: The Gifted, 2013.

Nicki Minaj & Juicy J) - Wale.

8,332,354 followers8. Current track: Work It (feat. 50 Cent) (Remix)Work It (feat.

Nicki Minaj & Juicy J Wale - Clappers Feat. Nicki Minaj & Juicy J Wale - Clappers Feat. Nicki Minaj & Juicy J. Appears on these pages.


General
Complete name : Wale Ft. Nicki Minaj & Juicy J - Clappers [Explicit] 720p [Sbyky].MP4
Format : MPEG-4
Format profile : Base Media / Version 2
Codec ID : mp42
File size : 104 MiB
Duration : 5mn 34s
Overall bit rate mode : Variable
Overall bit rate : 2 599 Kbps
Encoded date : UTC 2013-09-02 15:12:03
Tagged date : UTC 2013-09-02 15:12:03
Video
ID : 1
Format : AVC
Format/Info : Advanced Video Codec
Format profile : [email protected]
Format settings, CABAC : Yes
Format settings, ReFrames : 1 frame
Format settings, GOP : M=1, N=60
Codec ID : avc1
Codec ID/Info : Advanced Video Coding
Duration : 5mn 34s
Bit rate : 2 405 Kbps
Maximum bit rate : 7 324 Kbps
Width : 1 280 pixels
Height : 720 pixels
Display aspect ratio : 16:9
Frame rate mode : Constant
Frame rate : 23.976 fps
Color space : YUV
Chroma subsampling : 4:2:0
Bit depth : 8 bits
Scan type : Progressive
Bits/(Pixel*Frame) : 0.109
Stream size : 95.9 MiB (93%)
Tagged date : UTC 2013-09-02 15:12:37
Audio
ID : 2
Format : AAC
Format/Info : Advanced Audio Codec
Format profile : LC
Codec ID : 40
Duration : 5mn 34s
Bit rate mode : Variable
Bit rate : 192 Kbps
Maximum bit rate : 201 Kbps
Channel(s) : 2 channels
Channel positions : Front: L R
Sampling rate : 44.1 KHz
Compression mode : Lossy
Stream size : 7.65 MiB (7%)
Title : IsoMedia File Produced by Google, 5-11-2011
Encoded date : UTC 2013-09-02 15:12:26
Tagged date : UTC 2013-09-02 15:12:37
Shared By Sbyky

Related music:
Nicki Minaj Ft Cassie - The Boys 720p download Nicki Minaj Ft Cassie - The Boys 720p
Video
English
93.8 MB
4.7
/images/5/1/nicki-minaj-ft-cassie-the-boys-720p-.jpg
2 Chainz - I'm Different 720p download 2 Chainz - I'm Different 720p
Video
English
76.5 MB
4.3
/images/5/0/2-chainz-i27m-different-720p-.jpg
John Legend - All Of Me 720p Music Video download John Legend - All Of Me 720p Music Video
Video
English
62.7 MB
4.1
/images/5/4/john-legend-all-of-me-720p-music-video-.jpg
Ciara Ft Nicki Minaj - I'm Out 720p download Ciara Ft Nicki Minaj - I'm Out 720p
Video
English
55.3 MB
4.4
/images/5/3/ciara-ft-nicki-minaj-i27m-out-720p-.jpg
B o B Ft T I & Juicy J - We Still In This Bitch 720p Music Video download B o B Ft T I & Juicy J - We Still In This Bitch 720p Music Video
Video
English
51.5 MB
4.7
/images/5/6/b-o-b-ft-t-i-26-juicy-j-we-still-in-this-bitch-720p-music-video-.jpg
2 Chainz Ft Cap 1 - Where U Been 720p download 2 Chainz Ft Cap 1 - Where U Been 720p
Video
English
84.8 MB
4.7
/images/5/6/2-chainz-ft-cap-1-where-u-been-720p-.jpg
Little Mix - Little Me 720p Music Video download Little Mix - Little Me 720p Music Video
Video
English
37.9 MB
4.1
/images/5/5/little-mix-little-me-720p-music-video-.jpg
Rihanna - Pour It Up 720p download Rihanna - Pour It Up 720p
Video
English
54.9 MB
4.7
/images/5/1/rihanna-pour-it-up-720p-.jpg