Files 42316
» » Cher Lloyd Ft T I - I Wish 720p Music Video
Language: English
Size: 60.6 MB
Votes: 515
Downloaded: 36
Category: Video
Format: MP3, FLAC
4.3

File list

  • Cher Lloyd Ft. T.I. - I Wish [Music Video] 720p [Sbyky].mp4 (60.6 MB)

Cher Lloyd - Want U Back (US Version) (Official Music Video) - Продолжительность: 3:36 Cher Lloyd Recommended for yo. No Mediocre ft. Iggy Azalea (Official Music Video) - Продолжительность: 3:23 TIvsTIP Recommended for you. 3:23.

Cher Lloyd - Want U Back (US Version) (Official Music Video) - Продолжительность: 3:36 Cher Lloyd Recommended for you. 3:36. Rihanna - Diamonds - Продолжительность: 4:43 Rihanna Recommended for you. 4:43. Iggy Azalea - Black Widow ft. Rita Ora (Official Music Video) - Продолжительность: 5:31 Iggy Azalea Recommended for you. 5:31. Michael Jackson - You Rock My World (Official Video) - Продолжительность: 13:33 Michael Jackson Recommended for you.

Cher Lloyd - I Wish (Official Music Video) f.

Cher Lloyd - I Wish (Official Music Video) ft. .

C) 2013 Epic Records, a division of Sony Music Entertainment.

Produced by ILYA, OZGO & Shellback. Album Sorry I’m Late. I wish I was tall, I wish I was fast Wish I could shop with a bag full of cash 'Cause if I want you, I gotta have that (Come, come, kiss me, boy) I wish I had style, I wish I had flash I wish I woke up with a butt and a rack 'Cause if I want you, I gotta have that (Come, come, kiss me, boy)

I Wish" is a song by English recording artist Cher Lloyd. It was released on 2 September 2013 as the lead single from her second studio album, Sorry I'm Late (2014).

I Wish" is a song by English recording artist Cher Lloyd. It was released on 2 September 2013 as the lead single from her second studio album, Sorry I'm Late (2014) The song was leaked online on 28 August 2013. Lloyd performed the song on her I Wish Tour (2013–14). Lloyd appeared on Late Night with Jimmy Fallon in November 2013, featuring Skee-Lo performing portions of his own rap song called "I Wish".

Cher Lloyd – I Wish (instrumental). I Wish New Music - v. om/nomuzlife. Cher Lloyd – I Wish ft. Scandalous Trap Refix). CHER LLOYD – I WISH FEAT . Cher Lloyd – Cher Lloyd I Wish Riddler Twerk Remix. Lilly Allen & Cher Lloyd & . Air Balloon vs I Wish. Cher Lloyd – I Wish (Solo Version).


General
Complete name : Cher Lloyd Ft. T.I. - I Wish [Music Video] 720p [Sbyky].mp4
Format : MPEG-4
Format profile : Base Media / Version 2
Codec ID : mp42
File size : 60.6 MiB
Duration : 3mn 48s
Overall bit rate mode : Variable
Overall bit rate : 2 226 Kbps
Encoded date : UTC 2013-09-24 03:23:43
Tagged date : UTC 2013-09-24 03:23:43
Video
ID : 1
Format : AVC
Format/Info : Advanced Video Codec
Format profile : [email protected]
Format settings, CABAC : Yes
Format settings, ReFrames : 1 frame
Codec ID : avc1
Codec ID/Info : Advanced Video Coding
Duration : 3mn 48s
Bit rate : 2 032 Kbps
Maximum bit rate : 4 268 Kbps
Width : 1 280 pixels
Height : 720 pixels
Display aspect ratio : 16:9
Frame rate mode : Constant
Frame rate : 23.976 fps
Color space : YUV
Chroma subsampling : 4:2:0
Bit depth : 8 bits
Scan type : Progressive
Bits/(Pixel*Frame) : 0.092
Stream size : 55.3 MiB (91%)
Tagged date : UTC 2013-09-24 03:23:51
Audio
ID : 2
Format : AAC
Format/Info : Advanced Audio Codec
Format profile : LC
Codec ID : 40
Duration : 3mn 48s
Bit rate mode : Variable
Bit rate : 192 Kbps
Maximum bit rate : 202 Kbps
Channel(s) : 2 channels
Channel positions : Front: L R
Sampling rate : 44.1 KHz
Compression mode : Lossy
Stream size : 5.22 MiB (9%)
Title : IsoMedia File Produced by Google, 5-11-2011
Encoded date : UTC 2013-09-24 03:23:48
Tagged date : UTC 2013-09-24 03:23:51
Shared By Sbyky

Related music:
Emily Kinney - Kids 720p Music Video download Emily Kinney - Kids 720p Music Video
Video
English
60.5 MB
4.2
/images/5/3/emily-kinney-kids-720p-music-video-.jpg
Cher Lloyd Ft Astro - Want U Back 720p Music Video download Cher Lloyd Ft Astro - Want U Back 720p Music Video
Video
English
46.5 MB
4.1
/images/5/9/cher-lloyd-ft-astro-want-u-back-720p-music-video-.jpg
Cher Lloyd Ft Astro - Want U Back 1080p Music Video download Cher Lloyd Ft Astro - Want U Back 1080p Music Video
Video
English
84.0 MB
4.3
/images/5/3/cher-lloyd-ft-astro-want-u-back-1080p-music-video-.jpg
John Legend - All Of Me 720p Music Video download John Legend - All Of Me 720p Music Video
Video
English
62.7 MB
4.1
/images/5/4/john-legend-all-of-me-720p-music-video-.jpg
Cher Lloyd - Swagger Jagger 720p Music Video download Cher Lloyd - Swagger Jagger 720p Music Video
Video
English
77.1 MB
4.3
/images/5/8/cher-lloyd-swagger-jagger-720p-music-video-.jpg
Stromae - Papaoutai 720p Music Video download Stromae - Papaoutai 720p Music Video
Video
French
41.8 MB
4.6
/images/5/0/stromae-papaoutai-720p-music-video-.jpg
Ke$ha - Dirty Love 720p Music Video download Ke$ha - Dirty Love 720p Music Video
Video
English
77.0 MB
4.1
/images/5/7/ke24ha-dirty-love-720p-music-video-.jpg
J Cole - Work Out 720p Music Video download J Cole - Work Out 720p Music Video
Video
English
79.9 MB
4.2
/images/5/9/j-cole-work-out-720p-music-video-.jpg
Little Mix - Little Me 720p Music Video download Little Mix - Little Me 720p Music Video
Video
English
37.9 MB
4.1
/images/5/5/little-mix-little-me-720p-music-video-.jpg