Files 42316
» » Raatain HD Diva The Band *Ld123*
Language: Hindi
Size: 67.8 MB
Votes: 034
Downloaded: 16
Category: Video
Format: MP3, FLAC
4.6

File list

  • Raatain Diva Band Official video (HD).mp4.mp4 (67.8 MB)

Uploaded By LuckyDude123. Raatain Diva Band Official video (HD).

Uploaded By LuckyDude123.

Raatain Diva Band Official video (HD). By using this site you agree to and accept our user agreement. If you havent read the user agreement please do so here.

Raatain by diva band.

Syracuse, NY hard rock band The Last Divide was formed in the Fall of 2017. City of Cortland Police Department. Law Enforcement Agency. Symmetrical Defiance. One Step From Falling.

Raatain HD Diva The Band Ld123 Posted by LuckyDude123 in Music Video. just now. full hd blonde. 6. MB. LuckyDude123. l'esorcista integrale. halo greg bear.

Follow SOS the band and others on SoundCloud.

5 years ago5 years ago. Acoustic. Follow SOS the band and others on SoundCloud.

Raatain HD Diva The Band *Ld123*


Video
ID : 1
Format : MPEG-4 Visual
Format profile : [email protected]
Format settings, BVOP : No
Format settings, QPel : No
Format settings, GMC : No warppoints
Format settings, Matrix : Default (H.263)
Codec ID : 20
Duration : 4mn 28s
Bit rate : 2 036 Kbps
Width : 1 280 pixels
Height : 720 pixels
Display aspect ratio : 16:9
Frame rate mode : Constant
Frame rate : 23.976 fps
Color space : YUV
Chroma subsampling : 4:2:0
Bit depth : 8 bits
Scan type : Progressive
Compression mode : Lossy
Bits/(Pixel*Frame) : 0.092
Stream size : 65.1 MiB (96%)
Writing library : Lavc52.22.3
Audio
ID : 2
Format : AAC
Format/Info : Advanced Audio Codec
Format profile : LC
Codec ID : 40
Duration : 4mn 28s
Bit rate mode : Variable
Bit rate : 80.0 Kbps
Channel(s) : 2 channels
Channel positions : Front: L R
Sampling rate : 44.1 KHz
Compression mode : Lossy
Stream size : 2.56 MiB (4%)




:)

Related music:
Flo Rida ft Nelly Furtado - Jump Official Music Video download Flo Rida ft Nelly Furtado - Jump Official Music Video
Video
English
83.1 MB
4.3
/images/5/8/flo-rida-ft-nelly-furtado-jump-official-music-video-.jpg
Anna Lesko feat Gilberto - Go Crazy HDRip 2012-MFA download Anna Lesko feat Gilberto - Go Crazy HDRip 2012-MFA
Video
English
51.6 MB
4.8
/images/5/3/anna-lesko-feat-gilberto-go-crazy-hdrip-2012-mfa.jpg
Akcent feat Sandra N - I'm Sorry HDRip 2012-MFA download Akcent feat Sandra N - I'm Sorry HDRip 2012-MFA
Video
English
38.7 MB
4.2
/images/5/4/akcent-feat-sandra-n-i27m-sorry-hdrip-2012-mfa.jpg
Koi Aye Na Ali Khan HD By *LD123* download Koi Aye Na Ali Khan HD By *LD123*
Video
Hindi
32.5 MB
4.2
/images/5/3/koi-aye-na-ali-khan-hd-by-2ald1232a.jpg
Hey Rascals - Tittle Song From Rascals download Hey Rascals - Tittle Song From Rascals
Video
Hindi
92.2 MB
4.2
/images/5/2/hey-rascals-tittle-song-from-rascals.jpg
Connect-R - Vara nu dorm 2012-MFA download Connect-R - Vara nu dorm 2012-MFA
Video
English
141.6 MB
4.5
/images/5/1/connect-r-vara-nu-dorm-2012-mfa.jpg
Supertramp - Paris '79 MP4, AAC, 5.1 download Supertramp - Paris '79 MP4, AAC, 5.1
Video
English
4.6 GB
4.0
/images/5/1/supertramp-paris-2779-mp42c-aac2c-51.jpg
Raat Yun Dill Main Teri Abas Ali Khan *LD123* Tribute Cover download Raat Yun Dill Main Teri Abas Ali Khan *LD123* Tribute Cover
Video
Hindi
23.2 MB
4.1
/images/5/0/raat-yun-dill-main-teri-abas-ali-khan-2ald1232a-tribute-cover.jpg