Files 42316
» » Little Mix - Little Me 720p Music Video
Language: English
Size: 37.9 MB
Votes: 363
Downloaded: 47
Category: Video
Format: MP3, FLAC
4.1

File list

  • Little Mix - Little Me [Music Video] 720p [Sbyky].mp4 (37.9 MB)

Little Mix: Are a British girl group formed in 2011 during the eighth series of the UK version of The X Factor

Little Mix: Are a British girl group formed in 2011 during the eighth series of the UK version of The X Factor. They were the first group to win the competition, and following their victory, they signed with Simon Cowell's record label Syco Music and released a cover of Damien Rice's "Cannonball" as their winner's single. The members are Jade Thirlwall, Perrie Edwards, Leigh-Anne Pinnock, and Jesy Nelson. Wasabi, One I've Been Missing, Is Your Love Enough? и другие песни. Вся дискография, Радио, Концерты, рекомендации и похожие исполнители.

Feedback :: Обратная Связь.

Little Mix - Live at Apple Music Festival 2015 Little Mix - Little Me 720p.

Little Mix - Live at Apple Music Festival 2015. 1. 0. Video (Music videos). Little Mix - Love Me Like You (2015. Little Mix - Little Me 720p.


General
Complete name : Little Mix - Little Me [Music Video] 720p [Sbyky].mp4
Format : MPEG-4
Format profile : Base Media
Codec ID : isom
File size : 37.9 MiB
Duration : 4mn 20s
Overall bit rate mode : Variable
Overall bit rate : 1 222 Kbps
Encoded date : UTC 2013-12-21 19:43:19
Tagged date : UTC 2013-12-21 19:43:19
Video
ID : 1
Format : AVC
Format/Info : Advanced Video Codec
Format profile : [email protected]
Format settings, CABAC : Yes
Format settings, ReFrames : 3 frames
Codec ID : avc1
Codec ID/Info : Advanced Video Coding
Duration : 4mn 19s
Bit rate : 1 093 Kbps
Width : 1 280 pixels
Height : 720 pixels
Display aspect ratio : 16:9
Frame rate mode : Constant
Frame rate : 25.000 fps
Color space : YUV
Chroma subsampling : 4:2:0
Bit depth : 8 bits
Scan type : Progressive
Bits/(Pixel*Frame) : 0.047
Stream size : 33.9 MiB (89%)
Encoded date : UTC 2013-12-21 19:43:19
Tagged date : UTC 2013-12-21 19:43:19
Audio
ID : 2
Format : AAC
Format/Info : Advanced Audio Codec
Format profile : LC
Codec ID : 40
Duration : 4mn 20s
Bit rate mode : Variable
Bit rate : 126 Kbps
Channel(s) : 2 channels
Channel positions : Front: L R
Sampling rate : 44.1 KHz
Compression mode : Lossy
Delay relative to video : 40ms
Stream size : 3.89 MiB (10%)
Encoded date : UTC 2013-12-21 19:42:53
Tagged date : UTC 2013-12-21 19:42:53
Shared By Sbyky

Related music:
Britney Spears - Ooh La La 720p Music Video download Britney Spears - Ooh La La 720p Music Video
Video
English
66.7 MB
4.6
/images/5/2/britney-spears-ooh-la-la-720p-music-video-.jpg
Fall Out Boy - The Phoenix 720p Music Video download Fall Out Boy - The Phoenix 720p Music Video
Video
English
40.1 MB
4.1
/images/5/4/fall-out-boy-the-phoenix-720p-music-video-.jpg
Hot Chelle Rae - Hung Up 720p Music Video download Hot Chelle Rae - Hung Up 720p Music Video
Video
English
46.2 MB
4.5
/images/5/3/hot-chelle-rae-hung-up-720p-music-video-.jpg
John Newman - Love Me Again 720p Music Video download John Newman - Love Me Again 720p Music Video
Video
English
33.4 MB
4.9
/images/5/7/john-newman-love-me-again-720p-music-video-.jpg
One Direction - Story Of My Life 720p Music Video download One Direction - Story Of My Life 720p Music Video
Video
English
37.7 MB
4.4
/images/5/2/one-direction-story-of-my-life-720p-music-video-.jpg
Beyoncé - XO 720p Music Video download Beyoncé - XO 720p Music Video
Video
English
58.3 MB
4.2
/images/5/7/beyoncc3a9-xo-720p-music-video-.jpg
Miley Cyrus - Party In The U S A 720p Music Video download Miley Cyrus - Party In The U S A 720p Music Video
Video
English
55.8 MB
4.5
/images/5/6/miley-cyrus-party-in-the-u-s-a-720p-music-video-.jpg
Pitbull Ft Ke$ha - Timber 720p Music Video download Pitbull Ft Ke$ha - Timber 720p Music Video
Video
English
46.9 MB
4.3
/images/5/5/pitbull-ft-ke24ha-timber-720p-music-video-.jpg
Jessie J - Thunder 720p Music Video download Jessie J - Thunder 720p Music Video
Video
English
33.5 MB
4.4
/images/5/2/jessie-j-thunder-720p-music-video-.jpg
Justin Timberlake - TKO 720p Music Video download Justin Timberlake - TKO 720p Music Video
Video
English
78.9 MB
4.3
/images/5/1/justin-timberlake-tko-720p-music-video-.jpg